西西论坛

 找回密码
 立即注册
搜索

白蛇:缘起 White.Snake.2019.CHINESE.1080p.BluRay.x264.DTS-HD.MA.5.1-CHD 10...

[复制链接]
电影首发 发表于 2020-8-2 08:08:46 | 显示全部楼层 |阅读模式
帖子完整标题:白蛇:缘起 White.Snake.2019.CHINESE.1080p.BluRay.x264.DTS-HD.MA.5.1-CHD 10.50GB




◎译  名 White Snake
◎片  名 白蛇:缘起
◎年  代 2019
◎产  地 中国大陆 / 美国
◎类  别 爱情 / 动画 / 奇幻
◎语  言 汉语普通话
◎上映日期 2019-01-11(中国大陆)
◎IMDb评分  7.0/10 from 1989 users
◎片  长 99分钟
◎导  演 黄家康 Jiakang Huang / 赵霁 Ji Zhao
◎编  剧 大毛 Damao
◎主  演 张喆 Zhe Zhang
       杨天翔 Tianxiang Yang
       唐小喜 Xiaoxi Tang
       刘薇 Wei Liu
       张遥函 Yaohan Zhang
       郑小璞 Xiaopu Zheng
       张博恒 Boheng Zhang
       张赫 He Zhang
       马程 Cheng Ma
       程寅 Yin Cheng
       陈霖生 Linsheng Chen
       惠龙 Long Hui
       林强 Qiang Lin
       章斌  Bin Zhang


◎标  签 动画 | 爱情 | 唯美 | 中国 | 古装 | 神话 | 奇幻 | 中国大陆

◎简  介   

  幽暗洞中,白蛇(张喆 配音)苦苦修炼却不得其法,小青见此情景,将发髻上的碧玉簪子取下,令白蛇攥在手中。那一刻,五百年前的记忆瞬间苏醒。五百年前,晚唐君主昏聩庸碌,掌握邪术的国师只手遮天,命令天下百姓捕蛇修法。为了拯救族群,白蛇冒险行刺,结果却遭遇挫败,还失去了记忆。当她再度醒来,发现自己被一个专门捕蛇的村落所救下,而那个胆小却善良的青年许宣(杨天翔 配音)则吸引了白蛇的注意。与此同时,国师派出爪牙四处追寻白蛇的下落,而蛇族更误解白蛇叛逃人类,接二连三派出杀手。
  五百年后的一段姻缘,早在这乱世之间便已缔结……

◎获奖情况  

  第29届安锡国际动画节(2019)
  长篇动画单元 长片水晶奖(提名) 黄家康 / 赵霁

  第32届中国电影金鸡奖(2019)
  最佳美术片(提名)

  第67届美国音效剪辑协会奖(2020)
  金卷轴奖 最佳动画片音效剪辑(提名)

  第6届豆瓣电影年度榜单(2019)
  评分最高的华语电影(提名)
  评分最高的动画片(提名)
Video
ID                                       : 1
Format                                   : AVC
Format/Info                              : Advanced Video Codec
Format settings                          : CABAC / 4 Ref Frames
Format settings, CABAC                   : Yes
Format settings, Reference frames        : 4 frames
Codec ID                                 : V_MPEG4/ISO/AVC
Duration                                 : 1 h 39 min
Bit rate                                 : 10.8 Mb/s
Width                                    : 1 920 pixels
Height                                   : 804 pixels
Display aspect ratio                     : 2.40:1
Frame rate mode                          : Constant
Frame rate                               : 24.000 FPS
Color space                              : YUV
Chroma subsampling                       : 4:2:0
Bit depth                                : 8 bits
Scan type                                : Progressive
Bits/(Pixel*Frame)                       : 0.292
Stream size                              : 7.49 GiB (71%)
Title                                    : White.Snake.2019.CHINESE.1080p.BluRay.x264.DTS-HD.MA.5.1-CHD
Writing library                          : x264 core 157 r2867+150 7e91e0e t_mod_Custom_2
Encoding settings                        : cabac=1 / ref=4 / deblock=1:-3:-3 / analyse=0x3:0x133 / me=umh / subme=11 / psy=1 / fade_compensate=0.00 / psy_rd=0.90:0.10 / mixed_ref=1 / me_range=64 / chroma_me=1 / trellis=2 / 8x8dct=1 / cqm=0 / deadzone=21,11 / fast_pskip=0 / chroma_qp_offset=-4 / threads=25 / lookahead_threads=4 / sliced_threads=0 / nr=0 / decimate=1 / interlaced=0 / bluray_compat=0 / constrained_intra=0 / fgo=0 / bframes=8 / b_pyramid=2 / b_adapt=2 / b_bias=0 / direct=3 / weightb=1 / open_gop=0 / weightp=2 / keyint=250 / keyint_min=24 / scenecut=40 / intra_refresh=0 / rc_lookahead=60 / rc=crf / mbtree=0 / crf=17.0000 / qcomp=0.70 / qpmin=0:0:0 / qpmax=69:69:69 / qpstep=4 / vbv_maxrate=35000 / vbv_bufsize=35000 / crf_max=0.0 / nal_hrd=none / filler=0 / ip_ratio=1.40 / pb_ratio=1.30 / aq=3:1.00 / aq-sensitivity=10.00 / aq-factor=1.00:1.00:1.00 / aq2=0 / aq3=0
Language                                 : Chinese
Default                                  : Yes
Forced                                   : No

Audio #1
ID                                       : 2
Format                                   : DTS XLL
Format/Info                              : Digital Theater Systems
Commercial name                          : DTS-HD Master Audio
Codec ID                                 : A_DTS
Duration                                 : 1 h 39 min
Bit rate mode                            : Variable
Bit rate                                 : 2 185 kb/s
Channel(s)                               : 6 channels
Channel layout                           : C L R Ls Rs LFE
Sampling rate                            : 48.0 kHz
Frame rate                               : 93.750 FPS (512 SPF)
Bit depth                                : 24 bits
Compression mode                         : Lossless
Stream size                              : 1.51 GiB (14%)
Title                                    : White.Snake.2019.CHINESE.1080p.BluRay.x264.DTS-HD.MA.5.1-CHD
Language                                 : Chinese
Default                                  : Yes
Forced                                   : No

Audio #2
ID                                       : 3
Format                                   : DTS XLL
Format/Info                              : Digital Theater Systems
Commercial name                          : DTS-HD Master Audio
Codec ID                                 : A_DTS
Duration                                 : 1 h 39 min
Bit rate mode                            : Variable
Bit rate                                 : 2 099 kb/s
Channel(s)                               : 6 channels
Channel layout                           : C L R Ls Rs LFE
Sampling rate                            : 48.0 kHz
Frame rate                               : 93.750 FPS (512 SPF)
Bit depth                                : 24 bits
Compression mode                         : Lossless
Stream size                              : 1.45 GiB (14%)
Title                                    : White.Snake.2019.CHINESE.1080p.BluRay.x264.DTS-HD.MA.5.1-CHD
Language                                 : English
Default                                  : No
Forced                                   : No

Text #1
ID                                       : 4
Format                                   : UTF-8
Codec ID                                 : S_TEXT/UTF8
Codec ID/Info                            : UTF-8 Plain Text
Duration                                 : 1 h 35 min
Bit rate                                 : 35 b/s
Count of elements                        : 939
Stream size                              : 24.9 KiB (0%)
Title                                    : English-SRT
Language                                 : English
Default                                  : Yes
Forced                                   : No

Text #2
ID                                       : 5
Format                                   : PGS
Muxing mode                              : zlib
Codec ID                                 : S_HDMV/PGS
Codec ID/Info                            : Picture based subtitle format used on BDs/HD-DVDs
Duration                                 : 1 h 33 min
Bit rate                                 : 18.5 kb/s
Count of elements                        : 2090
Stream size                              : 12.4 MiB (0%)
Title                                    : English-PGS
Language                                 : English
Default                                  : No
Forced                                   : No

Text #3
ID                                       : 6
Format                                   : PGS
Muxing mode                              : zlib
Codec ID                                 : S_HDMV/PGS
Codec ID/Info                            : Picture based subtitle format used on BDs/HD-DVDs
Duration                                 : 1 s 160 ms
Bit rate                                 : 127 kb/s
Count of elements                        : 2
Stream size                              : 17.9 KiB (0%)
Title                                    : English-FORCED-PGS
Language                                 : English
Default                                  : No
Forced                                   : Yes

Text #4
ID                                       : 7
Format                                   : PGS
Muxing mode                              : zlib
Codec ID                                 : S_HDMV/PGS
Codec ID/Info                            : Picture based subtitle format used on BDs/HD-DVDs
Duration                                 : 1 h 37 min
Bit rate                                 : 27.4 kb/s
Count of elements                        : 2648
Stream size                              : 19.0 MiB (0%)
Title                                    : English-SDH-PGS
Language                                 : English
Default                                  : No
Forced                                   : No

Text #5
ID                                       : 8
Format                                   : PGS
Muxing mode                              : zlib
Codec ID                                 : S_HDMV/PGS
Codec ID/Info                            : Picture based subtitle format used on BDs/HD-DVDs
Duration                                 : 1 h 33 min
Bit rate                                 : 20.4 kb/s
Count of elements                        : 2092
Stream size                              : 13.7 MiB (0%)
Title                                    : Spanish-PGS
Language                                 : Spanish
Default                                  : No
Forced                                   : No

Menu
00:00:00.000                             : en:Chapter 01
00:04:29.833                             : en:Chapter 02
00:10:26.708                             : en:Chapter 03
00:16:53.042                             : en:Chapter 04
00:22:43.458                             : en:Chapter 05
00:27:42.500                             : en:Chapter 06
00:32:41.208                             : en:Chapter 07
00:38:10.042                             : en:Chapter 08
00:44:17.458                             : en:Chapter 09
00:49:38.125                             : en:Chapter 10
00:54:35.583                             : en:Chapter 11
00:59:18.292                             : en:Chapter 12
01:04:12.792                             : en:Chapter 13
01:08:58.958                             : en:Chapter 14
01:15:38.167                             : en:Chapter 15
01:20:22.042                             : en:Chapter 16
01:27:52.750                             : en:Chapter 17
01:31:59.917                             : en:Chapter 18




                                                                                                                                                                                                        


6fb9c7a56b41a4c3751d64abcd018f97.zip (53.96 KB, 下载次数: 0)

回复

使用道具 举报

小黑屋|西西论坛

本网站所有资源来自网络,如无意中侵犯了您的权益,请发邮件至 [email protected],立即清除相关链接

GMT+8, 2020-8-15 08:48 , Processed in 0.121274 second(s), 23 queries .

Powered by Discuz! X3.2

© 2001-2013 Comsenz Inc.

快速回复 返回顶部 返回列表