西西论坛

 找回密码
 立即注册
搜索

解码游戏 Reborn.2018.CHINESE.1080p.BluRay.x264.DTS-CHD 8.86GB

[复制链接]
电影首发 发表于 2020-7-31 07:44:46 | 显示全部楼层 |阅读模式
帖子完整标题:解码游戏 Reborn.2018.CHINESE.1080p.BluRay.x264.DTS-CHD 8.86GB




◎译  名 Reborn / 解码者
◎片  名 解码游戏
◎年  代 2018
◎产  地 中国大陆 / 中国香港 / 美国
◎类  别 喜剧 / 动作 / 犯罪
◎语  言 汉语普通话
◎上映日期 2018-08-03(中国大陆)
◎IMDb评分  5.2/10 from 305 users
◎片  长 99分钟
◎导  演 李海龙 Li Hailong
◎编  剧 苏亮 Liang Su / 虞俏 Qiao Yu / 李敏 Erica Lee / 刘迟 Chi Liu
◎主  演 韩庚 Geng Han
       凤小岳 Rhydian Vaughan
       李媛 Yuan Li
       山下智久 Tomohisa Yamashita
       廖启智 Kai Chi Liu
       迈克尔·帕帕约翰 Michael Papajohn


◎标  签 黑客 | 犯罪 | 2018 | 动作 | 中国 | 悬疑 | 山p | 剧情

◎简  介   

  宅男黑客李浩铭被代号“斑马”的职业罪犯乔飞和神秘女孩苏仪绑架,被迫卷入了一起诡谲奇异的案件中,与深网黑暗巨头闫岳斗智斗勇。陷入冒险游戏中的浩铭和乔飞渐渐成为一对生死拍档,而在不断浮出的“真相”背后,其实隐藏着更深的秘密……
Video
ID                                       : 1
Format                                   : AVC
Format/Info                              : Advanced Video Codec
Format settings                          : CABAC / 4 Ref Frames
Format settings, CABAC                   : Yes
Format settings, ReFrames                : 4 frames
Codec ID                                 : V_MPEG4/ISO/AVC
Duration                                 : 1 h 38 min
Bit rate                                 : 11.3 Mb/s
Width                                    : 1 920 pixels
Height                                   : 804 pixels
Display aspect ratio                     : 2.40:1
Frame rate mode                          : Constant
Frame rate                               : 24.000 FPS
Color space                              : YUV
Chroma subsampling                       : 4:2:0
Bit depth                                : 8 bits
Scan type                                : Progressive
Bits/(Pixel*Frame)                       : 0.305
Stream size                              : 7.82 GiB (88%)
Writing library                          : x264 core 155 r2867+74 66b5600 t_mod_Custom_2 [1 X86_64]
Encoding settings                        : cabac=1 / ref=4 / deblock=1:-3:-3 / analyse=0x3:0x113 / me=umh / subme=10 / psy=1 / fade_compensate=0.00 / psy_rd=0.90:0.10 / mixed_ref=1 / me_range=48 / chroma_me=1 / trellis=2 / 8x8dct=1 / cqm=0 / deadzone=21,11 / fast_pskip=0 / chroma_qp_offset=-2 / threads=18 / lookahead_threads=3 / sliced_threads=0 / nr=0 / decimate=1 / interlaced=0 / bluray_compat=0 / constrained_intra=0 / fgo=0 / bframes=8 / b_pyramid=2 / b_adapt=2 / b_bias=0 / direct=3 / weightb=1 / open_gop=0 / weightp=2 / keyint=250 / keyint_min=24 / scenecut=40 / intra_refresh=0 / rc_lookahead=40 / rc=crf / mbtree=0 / crf=20.0000 / qcomp=0.70 / qpmin=0:0:0 / qpmax=69:69:69 / qpstep=4 / vbv_maxrate=35000 / vbv_bufsize=35000 / crf_max=0.0 / nal_hrd=none / filler=0 / ip_ratio=1.40 / pb_ratio=1.30 / aq=3:0.90 / aq-sensitivity=10.00 / aq-factor=1.00:1.00:1.00 / aq2=0 / aq3=2:[0.50:0.50]:[0.50:0.50]:[0.50:0.50]:[0.50:0.50] / aq3-sensitivity=10.00 / aq3-factor=[1.00:1.00]:[1.00:1.00]:[1.00:1.00] / aq3-boundary=192:64:24
Language                                 : English
Default                                  : Yes
Forced                                   : No
Color range                              : Limited
Matrix coefficients                      : BT.709

Audio
ID                                       : 2
Format                                   : DTS
Format/Info                              : Digital Theater Systems
Codec ID                                 : A_DTS
Duration                                 : 1 h 38 min
Bit rate mode                            : Constant
Bit rate                                 : 1 509 kb/s
Channel(s)                               : 6 channels
Channel layout                           : C L R Ls Rs LFE
Sampling rate                            : 48.0 kHz
Frame rate                               : 93.750 FPS (512 SPF)
Bit depth                                : 16 bits
Compression mode                         : Lossy
Stream size                              : 1.04 GiB (12%)
Language                                 : Chinese
Default                                  : Yes
Forced                                   : No

Text
ID                                       : 3
Format                                   : UTF-8
Codec ID                                 : S_TEXT/UTF8
Codec ID/Info                            : UTF-8 Plain Text
Duration                                 : 1 h 30 min
Bit rate                                 : 39 b/s
Count of elements                        : 964
Stream size                              : 26.1 KiB (0%)
Language                                 : English
Default                                  : Yes
Forced                                   : Yes

Menu
00:00:00.000                             : :绗?01 绔?
00:07:04.417                             : :绗?02 绔?
00:16:57.667                             : :绗?03 绔?
00:25:00.208                             : :绗?04 绔?
00:33:49.667                             : :绗?05 绔?
00:41:49.417                             : :绗?06 绔?
00:50:36.125                             : :绗?07 绔?
00:58:23.875                             : :绗?08 绔?
01:05:57.750                             : :绗?09 绔?
01:14:56.958                             : :绗?10 绔?
01:22:37.667                             : :绗?11 绔?
01:32:57.042                             : :绗?12 绔?






879ebd1d43d4abe8be99fe26172350d2.zip (44.97 KB, 下载次数: 0)

回复

使用道具 举报

小黑屋|西西论坛

本网站所有资源来自网络,如无意中侵犯了您的权益,请发邮件至 [email protected],立即清除相关链接

GMT+8, 2020-8-10 19:45 , Processed in 0.103796 second(s), 23 queries .

Powered by Discuz! X3.2

© 2001-2013 Comsenz Inc.

快速回复 返回顶部 返回列表