西西论坛

 找回密码
 立即注册
搜索

冷溪营地/超自然实录:恐怖夏令营 Camp.Cold.Brook.2018.1080p.BluRa...

[复制链接]
电影首发 发表于 2020-7-31 07:44:46 | 显示全部楼层 |阅读模式
帖子完整标题:冷溪营地/超自然实录:恐怖夏令营 Camp.Cold.Brook.2018.1080p.BluRay.x264.DD5.1-CHD 10.93GB




◎译  名 冷溪营地 / 超自然实录:恐怖夏令营(台)
◎片  名 Camp Cold Brook
◎年  代 2019
◎产  地 美国
◎类  别 恐怖
◎语  言 英语
◎上映日期 2018-08-25(美国)
◎IMDb评分  5.0/10 from 907 users
◎片  长 86分钟
◎导  演 安迪·帕尔默 Andy Palmer
◎编  剧 Alex Carl
◎主  演 丹妮尔·哈丽丝 Danielle Harris
       查德·迈克尔·墨瑞 Chad Michael Murray
       考特尼·盖恩斯 Courtney Gains
       凯特·琼斯 Cate Jones
       迈克尔·埃里克·里德 Michael Eric Reid
       康迪斯·德·维瑟 Candice De Visser
       朱丽叶·吉达 Juliette Kida
       Mary Kathryn Bryant
       Jason Van Eman
       Corbin Tyler


◎标  签 恐怖 | 美国 | 惊悚 | 美国电影 | 2019 | 查德·迈克尔·墨瑞 | 恶灵 | 恐怖惊悚悬疑重口血腥

◎简  介   

  一个超自然的小组开始检查一个废弃的夏令营,那里几十年前发生了一起大规模谋杀案。
Video
ID                                       : 1
Format                                   : AVC
Format settings                          : CABAC / 4 Ref Frames
Format settings, CABAC                   : Yes
Format settings, Reference frames        : 4 frames
Codec ID                                 : V_MPEG4/ISO/AVC
Duration                                 : 1 h 28 min
Bit rate                                 : 16.1 Mb/s
Width                                    : 1 920 pixels
Height                                   : 802 pixels
Display aspect ratio                     : 2.40:1
Frame rate mode                          : Constant
Frame rate                               : 23.976 (24000/1001/189150) FPS
Color space                              : YUV
Chroma subsampling                       : 4:2:0
Bit depth                                : 8 bits
Scan type                                : Progressive
Bits/(Pixel*Frame)                       : 0.436
Stream size                              : 9.99 GiB (91%)
Writing library                          : x264 core 157 r2867+150 7e91e0e t_mod_Custom_2
Encoding settings                        : cabac=1 / ref=4 / deblock=1:-3:-3 / analyse=0x3:0x133 / me=umh / subme=11 / psy=1 / fade_compensate=0.00 / psy_rd=1.00:0.00 / mixed_ref=1 / me_range=64 / chroma_me=1 / trellis=2 / 8x8dct=1 / cqm=0 / deadzone=21,11 / fast_pskip=0 / chroma_qp_offset=-3 / threads=24 / lookahead_threads=4 / sliced_threads=0 / nr=0 / decimate=1 / interlaced=0 / bluray_compat=0 / constrained_intra=0 / fgo=0 / bframes=8 / b_pyramid=2 / b_adapt=2 / b_bias=0 / direct=3 / weightb=1 / open_gop=0 / weightp=2 / keyint=250 / keyint_min=23 / scenecut=40 / intra_refresh=0 / rc=crf / mbtree=0 / crf=18.0000 / qcomp=0.70 / qpmin=0:0:0 / qpmax=69:69:69 / qpstep=4 / ip_ratio=1.40 / pb_ratio=1.30 / aq=3:1.00 / aq-sensitivity=10.00 / aq-factor=1.00:1.00:1.00 / aq2=0 / aq3=0
Language                                 : English
Default                                  : Yes
Forced                                   : No

Audio
ID                                       : 2
Format                                   : DTS
Format/Info                              : Digital Theater Systems
Codec ID                                 : A_DTS
Duration                                 : 1 h 28 min
Bit rate mode                            : Constant
Bit rate                                 : 1 509 kb/s
Channel(s)                               : 6 channels
Channel layout                           : C L R Ls Rs LFE
Sampling rate                            : 48.0 kHz
Frame rate                               : 93.750 FPS (512 SPF)
Bit depth                                : 24 bits
Compression mode                         : Lossy
Stream size                              : 960 MiB (9%)
Language                                 : English
Default                                  : Yes
Forced                                   : No

Text
ID                                       : 3
Format                                   : UTF-8
Codec ID                                 : S_TEXT/UTF8
Codec ID/Info                            : UTF-8 Plain Text
Duration                                 : 1 h 24 min
Bit rate                                 : 39 b/s
Count of elements                        : 949
Stream size                              : 24.7 KiB (0%)
Language                                 : English
Default                                  : Yes
Forced                                   : No

Menu
00:00:00.000                             : :绗?01 绔?
00:08:07.987                             : :绗?02 绔?
00:14:36.250                             : :绗?03 绔?
00:23:41.170                             : :绗?04 绔?
00:30:43.300                             : :绗?05 绔?
00:36:53.002                             : :绗?06 绔?
00:46:15.982                             : :绗?07 绔?
00:53:51.353                             : :绗?08 绔?
01:01:50.498                             : :绗?09 绔?
01:08:35.236                             : :绗?10 绔?
01:16:21.786                             : :绗?11 绔?
01:24:20.430                             : :绗?12 绔?





2e356f0c1dbca13410e3b1334bf86c59.zip (55.29 KB, 下载次数: 0)

回复

使用道具 举报

小黑屋|西西论坛

本网站所有资源来自网络,如无意中侵犯了您的权益,请发邮件至 [email protected],立即清除相关链接

GMT+8, 2020-8-15 08:51 , Processed in 0.119852 second(s), 23 queries .

Powered by Discuz! X3.2

© 2001-2013 Comsenz Inc.

快速回复 返回顶部 返回列表