西西论坛

 找回密码
 立即注册
搜索

[BD-4K] 漂亮男孩/美丽男孩 Beautiful.Boy.2018.HDR.2160p.WEB.h265-WATCHER 12.74GB

[复制链接]
电影首发 发表于 2020-7-31 07:09:05 | 显示全部楼层 |阅读模式
帖子完整标题:漂亮男孩/美丽男孩 Beautiful.Boy.2018.HDR.2160p.WEB.h265-WATCHER 12.74GB




◎译  名 漂亮男孩 / 美丽男孩(台)
◎片  名 Beautiful Boy
◎年  代 2018
◎产  地 美国
◎类  别 剧情
◎语  言 英语
◎上映日期 2018-09-07(多伦多电影节) / 2018-10-12(美国)
◎IMDb评分  7.3/10 from 47445 users
◎片  长 120分钟
◎导  演 菲力斯·范·古宁根 Felix Van Groeningen
◎编  剧 菲力斯·范·古宁根 Felix Van Groeningen / 卢克·戴维斯 Luke Davies / David Sheff / Nic Sheff
◎主  演 史蒂夫·卡瑞尔 Steve Carell
       蒂莫西·柴勒梅德 Timothée Chalamet
       毛拉·蒂尔内 Maura Tierney
       克里斯蒂安·康佛瑞 Christian Convery
       凯特琳·德弗 Kaitlyn Dever
       艾米·莱安 Amy Ryan
       斯戴芬妮·斯考特 Stefanie Scott
       朱利安·沃克斯 Julian Works
       杰克·迪伦·格雷泽 Jack Dylan Grazer
       艾米·福赛思 Amy Forsyth
       安德烈·罗佑  Andre Royo
       曼迪娅·弗罗里 Mandeiya Flory
       蒂莫西·赫顿 Timothy Hutton
       爱德华德·弗莱彻 Edward Fletcher
       丽莎·盖伊·汉密尔顿 Lisa Gay Hamilton
       迈克尔·帕特里克·麦克吉尔 Michael Patrick McGill
       汤姆·蔡 Tom Choi
       山姆·狄龙 Sam Dillon
       埃米·阿奎诺 Amy Aquino
       汤姆·贝耶 Tom Beyer
       朱利安·克鲁瑟 Julian Crouser
       约翰·洛巴托 John Lobato
       安东尼·斯诺 Anthony Snow
       艾蒂安·维克 Etienne Vick
       大卫·门登霍尔 David Mendenhall
       Oakley Bull
       Kue Lawrence
       Ricky Low
       Mary Pat Farrell
       Jeff Adler
       Sasha Kelly Jackson
       Carlton Wilborn
       Nikki Snipper
       Martha T. Newman
       Brooklin Thacher
       Frederick Lawrence
       Anastasia Leddick
       Minerva García
       Seann Gallagher
       Rodney J. Hobbs


◎标  签 甜茶 | 美国 | 蒂莫西·柴勒梅德 | TimothéeChalamet | 剧情 | 家庭 | Timothée_Chalamet | 2018

◎简  介   

  艾米·莱安加盟亚马逊新片[漂亮男孩]。该片将由菲力斯·范·古宁根([破碎之家])执导,他将同[雄狮]的编剧卢克·戴维斯一同撰写剧本。电影讲述由史蒂夫·卡瑞尔饰演的父亲,帮助儿子戒除药物上瘾的历程。艾米将在电影中扮演史蒂夫的前妻,蒂莫西·柴勒梅德有望出演该片中的“漂亮男孩”。

◎获奖情况  

  第76届金球奖(2019)
  电影类 最佳男配角(提名) 蒂莫西·柴勒梅德

  第72届英国电影学院奖(2019)
  电影奖 最佳男配角(提名) 蒂莫西·柴勒梅德

  第66届圣塞巴斯蒂安国际电影节(2018)
  金贝壳奖(提名) 菲力斯·范·古宁根

  第25届美国演员工会奖(2019)
  电影奖 最佳男配角(提名) 蒂莫西·柴勒梅德

  第6届美国化妆及发型设计工会奖(2019)
  电影类最佳现代戏化妆(提名)

  第24届美国评论家选择电影奖(2019)
  最佳男配角(提名) 蒂莫西·柴勒梅德

  第23届金卫星奖(2019)
  电影部门 最佳男配角(提名) 蒂莫西·柴勒梅德

  第22届好莱坞电影奖(2018)
  年度男配角 蒂莫西·柴勒梅德
  年度突破导演 菲力斯·范·古宁根

  第17届华盛顿影评人协会奖(2018)
  最佳男配角(提名) 蒂莫西·柴勒梅德

  第31届芝加哥影评人协会奖(2018)
  最佳男配角(提名) 蒂莫西·柴勒梅德

  第52届堪萨斯影评人协会奖(2018)
  最佳男配角(提名) 蒂莫西·柴勒梅德
[quote]Video
ID                                       : 28
Format                                   : HEVC
Format/Info                              : High Efficiency Video Coding
HDR format                               : SMPTE ST 2094 App 4, Version 0
Codec ID                                 : V_MPEGH/ISO/HEVC
Duration                                 : 2 h 0 min
Bit rate                                 : 14.5 Mb/s
Width                                    : 3 840 pixels
Height                                   : 2 080 pixels
Display aspect ratio                     : 1.85:1
Frame rate mode                          : Constant
Frame rate                               : 23.976 (24000/1001/189150) FPS
Standard                                 : NTSC
Color space                              : YUV
Chroma subsampling                       : 4:2:0 (Type 2)
Bit depth                                : 10 bits
Bits/(Pixel*Frame)                       : 0.076
Stream size                              : 12.2 GiB (96%)
Default                                  : Yes
Forced                                   : No
Color range                              : Limited
Color primaries                          : BT.2020
Transfer characteristics                 : PQ
Matrix coefficients                      : BT.2020 non-constant
Mastering display color primaries        : Display P3
Mastering display luminance              : min: 0.0001 cd/m2, max: 1000 cd/m2
Maximum Content Light Level              : 1000 cd/m2
Maximum Frame-Average Light Level        : 587 cd/m2

Audio
ID                                       : 1
Format                                   : E-AC-3
Format/Info                              : Enhanced AC-3
Commercial name                          : Dolby Digital Plus
Codec ID                                 : A_EAC3
Duration                                 : 2 h 0 min
Bit rate mode                            : Constant
Bit rate                                 : 640 kb/s
Channel(s)                               : 6 channels
Channel layout                           : L R C LFE Ls Rs
Sampling rate                            : 48.0 kHz
Frame rate                               : 31.250 FPS (1536 SPF)
Compression mode                         : Lossy
Stream size                              : 550 MiB (4%)
Title                                    : English
Language                                 : English
Service kind                             : Complete Main
Default                                  : Yes
Forced                                   : No

Text #1
ID                                       : 2
Format                                   : UTF-8
Codec ID                                 : S_TEXT/UTF8
Codec ID/Info                            : UTF-8 Plain Text
Duration                                 : 1 h 59 min
Bit rate                                 : 59 b/s
Count of elements                        : 1960
Stream size                              : 51.9 KiB (0%)
Title                                    : English [SDH]
Language                                 : English
Default                                  : No
Forced                                   : No

Text #2
ID                                       : 3
Format                                   : UTF-8
Codec ID                                 : S_TEXT/UTF8
Codec ID/Info                            : UTF-8 Plain Text
Duration                                 : 1 h 59 min
Bit rate                                 : 40 b/s
Count of elements                        : 1092
Stream size                              : 35.6 KiB (0%)
Title                                    : Castilian [Full]
Language                                 : Spanish
Default                                  : No
Forced                                   : No

Text #3
ID                                       : 4
Format                                   : UTF-8
Codec ID                                 : S_TEXT/UTF8
Codec ID/Info                            : UTF-8 Plain Text
Duration                                 : 1 h 49 min
Bit rate                                 : 44 b/s
Count of elements                        : 1263
Stream size                              : 35.8 KiB (0%)
Title                                    : Spanish [Full]
Language                                 : Spanish
Default                                  : No
Forced                                   : No

Text #4
ID                                       : 5
Format                                   : UTF-8
Codec ID                                 : S_TEXT/UTF8
Codec ID/Info                            : UTF-8 Plain Text
Duration                                 : 1 h 59 min
Bit rate                                 : 46 b/s
Count of elements                        : 1346
Stream size                              : 40.6 KiB (0%)
Title                                    : French (Canada) [Full]
Language                                 : French
Default                                  : No
Forced                                   : No

Text #5
ID                                       : 6
Format                                   : UTF-8
Codec ID                                 : S_TEXT/UTF8
Codec ID/Info                            : UTF-8 Plain Text
Duration                                 : 1 h 49 min
Bit rate                                 : 33 b/s
Count of elements                        : 949
Stream size                              : 26.9 KiB (0%)
Title                                    : Italian [Full]
Language                                 : Italian
Default                                  : No
Forced                                   : No

Text #6
ID                                       : 7
Format                                   : UTF-8
Codec ID                                 : S_TEXT/UTF8
Codec ID/Info                            : UTF-8 Plain Text
Duration                                 : 1 h 59 min
Bit rate                                 : 38 b/s
Count of elements                        : 1087
Stream size                              : 33.6 KiB (0%)
Title                                    : Portuguese [Full]
Language                                 : Portuguese
Default                                  : No
Forced                                   : No

Text #7
ID                                       : 8
Format                                   : UTF-8
Codec ID                                 : S_TEXT/UTF8
Codec ID/Info                            : UTF-8 Plain Text
Duration                                 : 1 h 59 min
Bit rate                                 : 41 b/s
Count of elements                        : 1129
Stream size                              : 36.7 KiB (0%)
Title                                    : Brazilian Portuguese [Full]
Language                                 : Portuguese
Default                                  : No
Forced                                   : No

Text #8
ID                                       : 9
Format                                   : UTF-8
Codec ID                                 : S_TEXT/UTF8
Codec ID/Info                            : UTF-8 Plain Text
Duration                                 : 1 h 51 min
Bit rate                                 : 30 b/s
Count of elements                        : 858
Stream size                              : 25.1 KiB (0%)
Title                                    : Polish [Full]
Language                                 : Polish
Default                                  : No
Forced                                   : No

Text #9
ID                                       : 10
Format                                   : UTF-8
Codec ID                                 : S_TEXT/UTF8
Codec ID/Info                            : UTF-8 Plain Text
Duration                                 : 1 h 49 min
Bit rate                                 : 43 b/s
Count of elements                        : 977
Stream size                              : 34.9 KiB (0%)
Title                                    : Turkish [Full]
Language                                 : Turkish
Default                                  : No
Forced                                   : No

Text #10
ID                                       : 11
Format                                   : UTF-8
Codec ID                                 : S_TEXT/UTF8
Codec ID/Info                            : UTF-8 Plain Text
Duration                                 : 1 h 59 min
Bit rate                                 : 34 b/s
Count of elements                        : 754
Stream size                              : 30.0 KiB (0%)
Title                                    : Swedish [Full]
Language                                 : Swedish
Default                                  : No
Forced                                   : No

Text #11
ID                                       : 12
Format                                   : UTF-8
Codec ID                                 : S_TEXT/UTF8
Codec ID/Info                            : UTF-8 Plain Text
Duration                                 : 1 h 59 min
Bit rate                                 : 31 b/s
Count of elements                        : 754
Stream size                              : 27.6 KiB (0%)
Title                                    : Danish [Full]
Language                                 : Danish
Default                                  : No
Forced                                   : No

Text #12
ID                                       : 13
Format                                   : UTF-8
Codec ID                                 : S_TEXT/UTF8
Codec ID/Info                            : UTF-8 Plain Text
Duration                                 : 1 h 59 min
Bit rate                                 : 40 b/s
Count of elements                        : 1126
Stream size                              : 35.1 KiB (0%)
Title                                    : Finnish [Full]
Language                                 : Finnish
Default                                  : No
Forced                                   : No

Text #13
ID                                       : 14
Format                                   : UTF-8
Codec ID                                 : S_TEXT/UTF8
Codec ID/Info                            : UTF-8 Plain Text
Duration                                 : 1 h 59 min
Bit rate                                 : 34 b/s
Count of elements                        : 814
Stream size                              : 30.2 KiB (0%)
Title                                    : Dutch [Full]
Language                                 : Dutch
Default                                  : No
Forced                                   : No

Text #14
ID                                       : 15
Format                                   : UTF-8
Codec ID                                 : S_TEXT/UTF8
Codec ID/Info                            : UTF-8 Plain Text
Duration                                 : 1 h 59 min
Bit rate                                 : 29 b/s
Count of elements                        : 754
Stream size                              : 26.2 KiB (0%)
Title                                    : Norwegian (Bokm?l) [Full]
Language                                 : Norwegian Bokmal
Default                                  : No
Forced                                   : No

Text #15
ID                                       : 16
Format                                   : UTF-8
Codec ID                                 : S_TEXT/UTF8
Codec ID/Info                            : UTF-8 Plain Text
Duration                                 : 1 h 59 min
Bit rate                                 : 69 b/s
Count of elements                        : 1365
Stream size                              : 60.6 KiB (0%)
Title                                    : Russian [Full]
Language                                 : Russian
Default                                  : No
Forced                                   : No

Text #16
ID                                       : 17
Format                                   : UTF-8
Codec ID                                 : S_TEXT/UTF8
Codec ID/Info                            : UTF-8 Plain Text
Duration                                 : 1 h 49 min
Bit rate                                 : 67 b/s
Count of elements                        : 889
Stream size                              : 54.5 KiB (0%)
Title                                    : Hebrew [Full]
Language                                 : Hebrew
Default                                  : No
Forced                                   : No

Text #17
ID                                       : 18
Format                                   : UTF-8
Codec ID                                 : S_TEXT/UTF8
Codec ID/Info                            : UTF-8 Plain Text
Duration                                 : 1 h 49 min
Bit rate                                 : 64 b/s
Count of elements                        : 883
Stream size                              : 51.9 KiB (0%)
Title                                    : Arabic [Full]
Language                                 : Arabic
Default                                  : No
Forced                                   : No

Text #18
ID                                       : 19
Format                                   : UTF-8
Codec ID                                 : S_TEXT/UTF8
Codec ID/Info                            : UTF-8 Plain Text
Duration                                 : 1 h 59 min
Bit rate                                 : 108 b/s
Count of elements                        : 1370
Stream size                              : 94.8 KiB (0%)
Title                                    : Hindi [Full]
Language                                 : Hindi
Default                                  : No
Forced                                   : No

Text #19
ID                                       : 20
Format                                   : UTF-8
Codec ID                                 : S_TEXT/UTF8
Codec ID/Info                            : UTF-8 Plain Text
Duration                                 : 1 h 59 min
Bit rate                                 : 136 b/s
Count of elements                        : 1361
Stream size                              : 119 KiB (0%)
Title                                    : Tamil [Full]
Language                                 : Tamil
Default                                  : No
Forced                                   : No

Text #20
ID                                       : 21
Format                                   : UTF-8
Codec ID                                 : S_TEXT/UTF8
Codec ID/Info                            : UTF-8 Plain Text
Duration                                 : 1 h 59 min
Bit rate                                 : 126 b/s
Count of elements                        : 1370
Stream size                              : 111 KiB (0%)
Title                                    : Telugu [Full]
Language                                 : Telugu
Default                                  : No
Forced                                   : No

Text #21
ID                                       : 22
Format                                   : UTF-8
Codec ID                                 : S_TEXT/UTF8
Codec ID/Info                            : UTF-8 Plain Text
Duration                                 : 1 h 59 min
Bit rate                                 : 43 b/s
Count of elements                        : 1363
Stream size                              : 38.2 KiB (0%)
Title                                    : Indonesian [Full]
Language                                 : Indonesian
Default                                  : No
Forced                                   : No

Text #22
ID                                       : 23
Format                                   : UTF-8
Codec ID                                 : S_TEXT/UTF8
Codec ID/Info                            : UTF-8 Plain Text
Duration                                 : 1 h 59 min
Bit rate                                 : 100 b/s
Count of elements                        : 1360
Stream size                              : 88.2 KiB (0%)
Title                                    : Thai [Full]
Language                                 : Thai
Default                                  : No
Forced                                   : No

Text #23
ID                                       : 24
Format                                   : UTF-8
Codec ID                                 : S_TEXT/UTF8
Codec ID/Info                            : UTF-8 Plain Text
Duration                                 : 1 h 59 min
Bit rate                                 : 45 b/s
Count of elements                        : 1359
Stream size                              : 39.5 KiB (0%)
Title                                    : Korean [Full]
Language                                 : Korean
Default                                  : No
Forced                                   : No

Text #24
ID                                       : 25
Format                                   : UTF-8
Codec ID                                 : S_TEXT/UTF8
Codec ID/Info                            : UTF-8 Plain Text
Duration                                 : 1 h 59 min
Bit rate                                 : 37 b/s
Count of elements                        : 1370
Stream size                              : 32.7 KiB (0%)
Title                                    : Chinese (Simplified) [Full]
Language                                 : Chinese
Default                                  : No
Forced                                   : No

Text #25
ID                                       : 26
Format                                   : UTF-8
Codec ID                                 : S_TEXT/UTF8
Codec ID/Info                            : UTF-8 Plain Text
Duration                                 : 1 h 49 min
Bit rate                                 : 32 b/s
Count of elements                        : 1051
Stream size                              : 25.8 KiB (0%)
Title                                    : Chinese (Traditional) [Full]
Language                                 : Chinese
Default                                  : No
Forced                                   : No

Text #26
ID                                       : 27
Format                                   : UTF-8
Codec ID                                 : S_TEXT/UTF8
Codec ID/Info                            : UTF-8 Plain Text
Duration                                 : 1 h 59 min
Bit rate                                 : 35 b/s
Count of elements                        : 1101
Stream size                              : 31.4 KiB (0%)
Title

回复

使用道具 举报

小黑屋|西西论坛

本网站所有资源来自网络,如无意中侵犯了您的权益,请发邮件至 [email protected],立即清除相关链接

GMT+8, 2020-8-13 10:16 , Processed in 0.095664 second(s), 20 queries .

Powered by Discuz! X3.2

© 2001-2013 Comsenz Inc.

快速回复 返回顶部 返回列表