西西论坛

 找回密码
 立即注册
搜索

在某人受伤害之前 Before.Someone.Gets.Hurt.2018.1080p.BluRay.x264.DTS-...

[复制链接]
电影首发 发表于 2020-7-29 22:25:46 | 显示全部楼层 |阅读模式
帖子完整标题:在某人受伤害之前 Before.Someone.Gets.Hurt.2018.1080p.BluRay.x264.DTS-CHD 9.45GB




◎译  名 在某人受伤害之前 / Until Someone Gets Hurt / 猛鬼糾察隊(台)
◎片  名 Before Someone Gets Hurt
◎年  代 2018
◎产  地 美国
◎类  别 恐怖
◎语  言 英语
◎上映日期 2018-07(美国)
◎IMDb评分  3.3/10 from 292 users
◎导  演 Shane Barbanel
◎编  剧 Shane Barbanel / Brian Herskowitz
◎主  演 迈克·韦尔奇 Michael Welch
       Alexandra Turshen
       Aaron Sauter
       Patrick Woodall
       Katie Henney
       Julia Morrison
       威尔·罗杰斯 Will Rogers


◎标  签 恐怖 | 美国 | 灵异 | 2018 | 鬼屋 | 犯罪 | 悬疑 | 惊悚

◎简  介   

  Tim and his team are the rising stars of the ghost hunting game. One thing they all like better than a good haunt is a great prank. When the team arrives at a new investigation, they cannot figure if the occurrences are part of some elaborate master prank or if the house is actually haunted. Unfortunately, they don't find the answer until it is far too late.
Video
ID                                       : 1
Format                                   : AVC
Format/Info                              : Advanced Video Codec
Format settings                          : CABAC / 4 Ref Frames
Format settings, CABAC                   : Yes
Format settings, ReFrames                : 4 frames
Codec ID                                 : V_MPEG4/ISO/AVC
Duration                                 : 1 h 25 min
Bit rate                                 : 14.3 Mb/s
Width                                    : 1 920 pixels
Height                                   : 1 080 pixels
Display aspect ratio                     : 16:9
Frame rate mode                          : Constant
Frame rate                               : 23.976 (24000/1001/189150) FPS
Color space                              : YUV
Chroma subsampling                       : 4:2:0
Bit depth                                : 8 bits
Scan type                                : Progressive
Bits/(Pixel*Frame)                       : 0.288
Stream size                              : 8.54 GiB (90%)
Encoding settings                        : cabac=1 / ref=4 / deblock=1:-3:-3 / analyse=0x3:0x113 / me=umh / subme=10 / psy=1 / fade_compensate=0.00 / psy_rd=0.90:0.10 / mixed_ref=1 / me_range=48 / chroma_me=1 / trellis=2 / 8x8dct=1 / cqm=0 / deadzone=21,11 / fast_pskip=0 / chroma_qp_offset=-2 / threads=12 / lookahead_threads=2 / sliced_threads=0 / nr=0 / decimate=1 / interlaced=0 / bluray_compat=0 / constrained_intra=0 / fgo=0 / bframes=8 / b_pyramid=2 / b_adapt=2 / b_bias=0 / direct=3 / weightb=1 / open_gop=0 / weightp=2 / keyint=250 / keyint_min=23 / scenecut=40 / intra_refresh=0 / rc_lookahead=40 / rc=crf / mbtree=0 / crf=20.0000 / qcomp=0.70 / qpmin=0:0:0 / qpmax=69:69:69 / qpstep=4 / vbv_maxrate=35000 / vbv_bufsize=35000 / crf_max=0.0 / nal_hrd=none / filler=0 / ip_ratio=1.40 / pb_ratio=1.30 / aq=3:0.90 / aq-sensitivity=10.00 / aq-factor=1.00:1.00:1.00 / aq2=0 / aq3=2:[0.50:0.50]:[0.50:0.50]:[0.50:0.50]:[0.50:0.50] / aq3-sensitivity=10.00 / aq3-factor=[1.00:1.00]:[1.00:1.00]:[1.00:1.00] / aq3-boundary=192:64:24
Language                                 : English
Default                                  : Yes
Forced                                   : No
Color range                              : Limited
Matrix coefficients                      : BT.709

Audio
ID                                       : 2
Format                                   : DTS
Format/Info                              : Digital Theater Systems
Codec ID                                 : A_DTS
Duration                                 : 1 h 25 min
Bit rate mode                            : Constant
Bit rate                                 : 1 509 kb/s
Channel(s)                               : 6 channels
Channel layout                           : C L R Ls Rs LFE
Sampling rate                            : 48.0 kHz
Frame rate                               : 93.750 FPS (512 SPF)
Bit depth                                : 24 bits
Compression mode                         : Lossy
Stream size                              : 923 MiB (10%)
Language                                 : English
Default                                  : Yes
Forced                                   : No

Menu
00:00:00.000                             : :00:00:00.000
00:10:04.270                             : :00:10:04.270
00:20:31.939                             : :00:20:31.939
00:30:11.435                             : :00:30:11.435
00:39:02.340                             : :00:39:02.340
00:47:06.198                             : :00:47:06.198
00:58:08.318                             : :00:58:08.318
01:08:02.704                             : :01:08:02.704




                                                                                                                                                                                                        
                                                                                                                                                                                                                                                                                                                               e3ac5c8f783cd8cdd98bcc4e655a824e.zip (95.15 KB, 下载次数: 0)

回复

使用道具 举报

小黑屋|西西论坛

本网站所有资源来自网络,如无意中侵犯了您的权益,请发邮件至 [email protected],立即清除相关链接

GMT+8, 2020-8-10 19:01 , Processed in 0.095559 second(s), 23 queries .

Powered by Discuz! X3.2

© 2001-2013 Comsenz Inc.

快速回复 返回顶部 返回列表