西西论坛

 找回密码
 立即注册
搜索

人尽皆知 Everybody.Knows.2018.1080p.BluRay.x264-USURY 9.83GB

[复制链接]
电影首发 发表于 2020-7-27 13:06:37 | 显示全部楼层 |阅读模式
帖子完整标题:人尽皆知 Everybody.Knows.2018.1080p.BluRay.x264-USURY 9.83GB




◎译  名 人尽皆知 / Everybody Knows / 众所周知
◎片  名 Todos lo saben
◎年  代 2018
◎产  地 西班牙 / 法国
◎类  别 剧情 / 悬疑
◎语  言 西班牙语 / 英语
◎上映日期 2018-05-08(戛纳电影节) / 2018-09-14(西班牙)
◎IMDb评分  6.9/10 from 27037 users
◎片  长 133分钟
◎导  演 阿斯哈·法哈蒂 Asghar Farhadi
◎编  剧 阿斯哈·法哈蒂 Asghar Farhadi
◎主  演 哈维尔·巴登 Javier Bardem
       佩内洛佩·克鲁斯 Penélope Cruz
       里卡多·达林 Ricardo Darín
       巴巴拉·莱涅 Bárbara Lennie
       埃尔薇拉·明戈斯 Elvira Mínguez
       茵玛·奎斯塔 Inma Cuesta
       爱德华·费尔南德斯 Eduard Fernández
       拉蒙·巴雷阿 Ramón Barea
       Carla Campra


◎标  签 西班牙 | 悬疑 | 剧情 | 2018 | 家庭 | 戛纳 | 法国 | 惊悚

◎简  介   

  《人尽皆知》讲述了定居在阿根廷的西班牙裔女子劳拉和她的丈夫及孩子回到西班牙小镇参加姐姐的婚礼,然而孩子却莫名失踪,这一突发事件使得原本和谐的家庭开始互相猜疑,尘封许久的秘密逐渐浮出水面……

◎获奖情况  

  第71届戛纳电影节(2018)
  主竞赛单元 金棕榈奖(提名) 阿斯哈·法哈蒂

  第33届西班牙戈雅奖(2019)
  最佳影片(提名)
  最佳导演(提名) 阿斯哈·法哈蒂
  最佳男主角(提名) 哈维尔·巴登
  最佳女主角(提名) 佩内洛普·克鲁兹
  最佳男配角(提名) 爱德华·费尔南德斯
  最佳原创剧本(提名) 阿斯哈·法哈蒂
  最佳剪辑(提名)
  最佳原创歌曲(提名)
Video
ID                                       : 1
Format                                   : AVC
Format/Info                              : Advanced Video Codec
Format settings                          : CABAC / 4 Ref Frames
Format settings, CABAC                   : Yes
Format settings, Reference frames        : 4 frames
Codec ID                                 : V_MPEG4/ISO/AVC
Duration                                 : 2 h 13 min
Bit rate                                 : 9 025 kb/s
Width                                    : 1 920 pixels
Height                                   : 1 040 pixels
Display aspect ratio                     : 1.85:1
Frame rate mode                          : Constant
Frame rate                               : 23.976 (24000/1001/189150) FPS
Color space                              : YUV
Chroma subsampling                       : 4:2:0
Bit depth                                : 8 bits
Scan type                                : Progressive
Bits/(Pixel*Frame)                       : 0.189
Stream size                              : 8.42 GiB (86%)
Writing library                          : x264 core 155 r2901 7d0ff22
Encoding settings                        : cabac=1 / ref=4 / deblock=1:-3:-3 / analyse=0x3:0x133 / me=umh / subme=9 / psy=1 / psy_rd=1.00:0.00 / mixed_ref=1 / me_range=16 / chroma_me=1 / trellis=2 / 8x8dct=1 / cqm=0 / deadzone=21,11 / fast_pskip=0 / chroma_qp_offset=-2 / threads=24 / lookahead_threads=2 / sliced_threads=0 / nr=0 / decimate=1 / interlaced=0 / bluray_compat=0 / constrained_intra=0 / bframes=3 / b_pyramid=2 / b_adapt=1 / b_bias=0 / direct=3 / weightb=1 / open_gop=0 / weightp=2 / keyint=240 / keyint_min=24 / scenecut=40 / intra_refresh=0 / rc_lookahead=50 / rc=2pass / mbtree=1 / bitrate=9025 / ratetol=1.0 / qcomp=0.60 / qpmin=0 / qpmax=69 / qpstep=4 / cplxblur=20.0 / qblur=0.5 / ip_ratio=1.40 / aq=1:1.00
Language                                 : English
Default                                  : Yes
Forced                                   : No

Audio
ID                                       : 2
Format                                   : DTS
Format/Info                              : Digital Theater Systems
Codec ID                                 : A_DTS
Duration                                 : 2 h 13 min
Bit rate mode                            : Constant
Bit rate                                 : 1 509 kb/s
Channel(s)                               : 6 channels
Channel layout                           : C L R Ls Rs LFE
Sampling rate                            : 48.0 kHz
Frame rate                               : 93.750 FPS (512 SPF)
Bit depth                                : 24 bits
Compression mode                         : Lossy
Stream size                              : 1.41 GiB (14%)
Language                                 : Spanish
Default                                  : Yes
Forced                                   : No

Text
ID                                       : 3
Format                                   : UTF-8
Codec ID                                 : S_TEXT/UTF8
Codec ID/Info                            : UTF-8 Plain Text
Duration                                 : 2 h 6 min
Bit rate                                 : 36 b/s
Count of elements                        : 1347
Stream size                              : 33.9 KiB (0%)
Title                                    : English
Language                                 : English
Default                                  : Yes
Forced                                   : Yes

Menu
00:00:00.000                             : en:00:00:00.000
00:09:34.365                             : en:00:09:34.365
00:18:01.580                             : en:00:18:01.580
00:22:43.112                             : en:00:22:43.112
00:31:20.879                             : en:00:31:20.879
00:39:42.964                             : en:00:39:42.964
00:46:12.687                             : en:00:46:12.687
00:51:41.598                             : en:00:51:41.598
00:58:35.846                             : en:00:58:35.846
01:06:25.648                             : en:01:06:25.648
01:12:33.266                             : en:01:12:33.266
01:19:43.237                             : en:01:19:43.237
01:25:20.324                             : en:01:25:20.324
01:28:53.119                             : en:01:28:53.119
01:35:16.836                             : en:01:35:16.836
01:41:09.772                             : en:01:41:09.772
01:48:17.074                             : en:01:48:17.074
01:54:32.783                             : en:01:54:32.783
02:05:34.235                             : en:02:05:34.235
02:09:25.091                             : en:02:09:25.091




                                                                                                                                                                                                        
                                                                                                                                                                                                                                                                                                                                                                                                                                                                                                                                                                                                                                                                                                                                                                                                                     5046496f69150492ec8f40f16d4cc5e4.zip (49.88 KB, 下载次数: 0)

回复

使用道具 举报

小黑屋|西西论坛

本网站所有资源来自网络,如无意中侵犯了您的权益,请发邮件至 [email protected],立即清除相关链接

GMT+8, 2020-8-10 19:22 , Processed in 0.101435 second(s), 23 queries .

Powered by Discuz! X3.2

© 2001-2013 Comsenz Inc.

快速回复 返回顶部 返回列表