西西论坛

 找回密码
 立即注册
搜索

扭曲 Distorted.2018.1080p.BluRay.x264-PSYCHD 6.57GB

[复制链接]
电影首发 发表于 2020-7-26 09:59:56 | 显示全部楼层 |阅读模式
帖子完整标题:扭曲 Distorted.2018.1080p.BluRay.x264-PSYCHD 6.57GB




◎译  名 扭曲 / Distortion
◎片  名 Distorted
◎年  代 2018
◎产  地 加拿大
◎类  别 惊悚
◎语  言 英语
◎上映日期 2018-05-31(阿联酋)
◎IMDb评分  4.7/10 from 4450 users

◎片  长 86分钟
◎导  演 罗布·W·金 Rob W. King
◎编  剧 Arne Olsen
◎主  演 布莱登·佛雷切 Brendan Fletcher
       克里斯蒂娜·里奇 Christina Ricci
       约翰·库萨克 John Cusack
       奥利弗·莱斯 Oliver Rice
       斯科特·奥林克 Scott Olynek
       朱丽娅·马克斯维尔 Julia Maxwell
       Angela Quinn
       Nicole Anthony


◎标  签 惊悚 | 心理 | 悬疑 | 加拿大 | 2018 | 科幻 | 阴谋论 | 美国

◎简  介   

  克里斯蒂娜·里奇、约翰·库萨克、布莱登·佛雷切将参演[扭曲](Distorted,暂译),罗布·W·金执导,阿恩·奥尔森编剧。克里斯蒂娜·里奇扮演患有躁郁症的艺术家劳伦·柯伦,其饱受记忆折磨之苦,同时担心人身安全。片中库萨克饰演对网络阴谋颇感兴趣的记者,他将帮助劳伦。影片即将于加拿大开拍。
Video
ID                                       : 1
Format                                   : AVC
Format/Info                              : Advanced Video Codec
Format settings                          : CABAC / 5 Ref Frames
Format settings, CABAC                   : Yes
Format settings, Reference frames        : 5 frames
Codec ID                                 : V_MPEG4/ISO/AVC
Duration                                 : 1 h 26 min
Bit rate                                 : 9 367 kb/s
Width                                    : 1 920 pixels
Height                                   : 808 pixels
Display aspect ratio                     : 2.40:1
Frame rate mode                          : Constant
Frame rate                               : 23.976 (24000/1001/189150) FPS
Color space                              : YUV
Chroma subsampling                       : 4:2:0
Bit depth                                : 8 bits
Scan type                                : Progressive
Bits/(Pixel*Frame)                       : 0.252
Stream size                              : 5.51 GiB (84%)
Writing library                          : x264 core 157 r2932 303c484
Encoding settings                        : cabac=1 / ref=5 / deblock=1:-3:-3 / analyse=0x3:0x113 / me=umh / subme=8 / psy=1 / psy_rd=1.00:0.00 / mixed_ref=1 / me_range=32 / chroma_me=1 / trellis=2 / 8x8dct=1 / cqm=0 / deadzone=21,11 / fast_pskip=1 / chroma_qp_offset=-2 / threads=24 / lookahead_threads=4 / sliced_threads=0 / nr=0 / decimate=1 / interlaced=0 / bluray_compat=0 / constrained_intra=0 / bframes=3 / b_pyramid=2 / b_adapt=2 / b_bias=0 / direct=3 / weightb=1 / open_gop=0 / weightp=2 / keyint=240 / keyint_min=24 / scenecut=40 / intra_refresh=0 / rc_lookahead=50 / rc=2pass / mbtree=1 / bitrate=9367 / ratetol=1.0 / qcomp=0.60 / qpmin=0 / qpmax=69 / qpstep=4 / cplxblur=20.0 / qblur=0.5 / ip_ratio=1.40 / aq=3:0.80
Default                                  : Yes
Forced                                   : No
Statistics Tags Issue                    : no_variable_data 1970-01-01 00:00:00 / no_variable_data 2010-02-22 21:41:29
FromStats_BitRate                        : 9359964
FromStats_Duration                       : 01:26:19.174000000
FromStats_FrameCount                     : 124176
FromStats_StreamSize                     : 6059610620

Audio
ID                                       : 2
Format                                   : DTS
Format/Info                              : Digital Theater Systems
Codec ID                                 : A_DTS
Duration                                 : 1 h 26 min
Bit rate mode                            : Constant
Bit rate                                 : 1 509 kb/s
Channel(s)                               : 6 channels
Channel layout                           : C L R Ls Rs LFE
Sampling rate                            : 48.0 kHz
Frame rate                               : 93.750 FPS (512 SPF)
Bit depth                                : 24 bits
Compression mode                         : Lossy
Stream size                              : 932 MiB (14%)
Language                                 : English
Default                                  : Yes
Forced                                   : No
Statistics Tags Issue                    : no_variable_data 1970-01-01 00:00:00 / no_variable_data 2010-02-22 21:41:29
FromStats_BitRate                        : 1509000
FromStats_Duration                       : 01:26:19.168000000
FromStats_FrameCount                     : 485547
FromStats_StreamSize                     : 976920564

Text #1
ID                                       : 3
Format                                   : UTF-8
Codec ID                                 : S_TEXT/UTF8
Codec ID/Info                            : UTF-8 Plain Text
Language                                 : English
Default                                  : No
Forced                                   : No
Statistics Tags Issue                    : no_variable_data 1970-01-01 00:00:00 / no_variable_data 2010-02-22 21:41:29
FromStats_BitRate                        : 29
FromStats_Duration                       : 01:20:14.851000000
FromStats_FrameCount                     : 548
FromStats_StreamSize                     : 17673

Text #2
ID                                       : 4
Format                                   : UTF-8
Codec ID                                 : S_TEXT/UTF8
Codec ID/Info                            : UTF-8 Plain Text
Title                                    : SDH
Language                                 : English
Default                                  : No
Forced                                   : No
Statistics Tags Issue                    : no_variable_data 1970-01-01 00:00:00 / no_variable_data 2010-02-22 21:41:29
FromStats_BitRate                        : 34
FromStats_Duration                       : 01:21:46.985000000
FromStats_FrameCount                     : 740
FromStats_StreamSize                     : 21427

Menu
00:00:00.000                             : en:00:00:00.000
00:04:53.960                             : en:00:04:53.960
00:10:40.139                             : en:00:10:40.139
00:20:39.947                             : en:00:20:39.947
00:29:38.944                             : en:00:29:38.944
00:39:55.351                             : en:00:39:55.351
00:51:01.517                             : en:00:51:01.517
01:00:42.180                             : en:01:00:42.180
01:10:00.571                             : en:01:10:00.571
01:15:00.287                             : en:01:15:00.287
01:19:52.871                             : en:01:19:52.871
01:22:16.515                             : en:01:22:16.515




                                                                                                                                                                                                        
                                                                                                                                                                                                                                                                                                                                                                                                                                                                                                                                                 1390ed9a92afa933f8454381dcde5a7e.zip (132.06 KB, 下载次数: 0)

回复

使用道具 举报

小黑屋|西西论坛

本网站所有资源来自网络,如无意中侵犯了您的权益,请发邮件至 [email protected],立即清除相关链接

GMT+8, 2020-8-10 19:04 , Processed in 0.101212 second(s), 23 queries .

Powered by Discuz! X3.2

© 2001-2013 Comsenz Inc.

快速回复 返回顶部 返回列表