西西论坛

 找回密码
 立即注册
搜索

巴哈/包姚 Baja.2018.1080p.BluRay.x264.DTS-CHD 7.51GB

[复制链接]
电影首发 发表于 2020-7-26 09:59:56 | 显示全部楼层 |阅读模式
帖子完整标题:巴哈/包姚 Baja.2018.1080p.BluRay.x264.DTS-CHD 7.51GB




◎译  名 巴哈 / 包姚
◎片  名 Baja
◎年  代 2018
◎产  地 美国
◎类  别 喜剧
◎语  言 英语
◎上映日期 2018-04-13(美国)
◎IMDb评分  4.6/10 from 207 users
◎片  长 106分钟(美国)
◎导  演 Tony Vidal
◎编  剧 Tony Vidal
◎主  演 Chris Brochu
       杰克·托马斯 Jake Thomas
       Michelle DeShon
       Arienne Mandi
       Zoe Corraface


◎标  签 喜剧 | 美国 | 2018 | 墨西哥 | 公路电影 | 美国电影 | 电影 | 杰克·托马斯

◎简  介   

  Four 22 year-olds on a Mexican road trip seem bound for disaster until they, and their trip, are unexpectedly redeemed by a series of miraculous events.
Video
ID                                       : 1
Format                                   : AVC
Format/Info                              : Advanced Video Codec
Format settings                          : CABAC / 4 Ref Frames
Format settings, CABAC                   : Yes
Format settings, ReFrames                : 4 frames
Codec ID                                 : V_MPEG4/ISO/AVC
Duration                                 : 1 h 46 min
Bit rate                                 : 8 595 kb/s
Width                                    : 1 920 pixels
Height                                   : 960 pixels
Display aspect ratio                     : 2.000
Frame rate mode                          : Constant
Frame rate                               : 23.976 (24000/1001/189150) FPS
Color space                              : YUV
Chroma subsampling                       : 4:2:0
Bit depth                                : 8 bits
Scan type                                : Progressive
Bits/(Pixel*Frame)                       : 0.194
Stream size                              : 6.38 GiB (85%)
Writing library                          : x264 core 155 r2893 b00bcaf
Encoding settings                        : cabac=1 / ref=4 / deblock=1:-3:-3 / analyse=0x3:0x113 / me=umh / subme=10 / psy=1 / psy_rd=1.00:0.05 / mixed_ref=1 / me_range=48 / chroma_me=1 / trellis=2 / 8x8dct=1 / cqm=0 / deadzone=21,11 / fast_pskip=0 / chroma_qp_offset=-2 / threads=18 / lookahead_threads=3 / sliced_threads=0 / nr=0 / decimate=1 / interlaced=0 / bluray_compat=0 / constrained_intra=0 / bframes=8 / b_pyramid=2 / b_adapt=2 / b_bias=0 / direct=3 / weightb=1 / open_gop=0 / weightp=2 / keyint=250 / keyint_min=23 / scenecut=40 / intra_refresh=0 / rc_lookahead=40 / rc=crf / mbtree=0 / crf=18.0 / qcomp=0.60 / qpmin=0 / qpmax=69 / qpstep=4 / vbv_maxrate=50000 / vbv_bufsize=45000 / crf_max=0.0 / nal_hrd=none / filler=0 / ip_ratio=1.40 / pb_ratio=1.30 / aq=3:1.00
Default                                  : Yes
Forced                                   : No
Color range                              : Limited
Matrix coefficients                      : BT.709

Audio
ID                                       : 2
Format                                   : DTS
Format/Info                              : Digital Theater Systems
Codec ID                                 : A_DTS
Duration                                 : 1 h 46 min
Bit rate mode                            : Constant
Bit rate                                 : 1 509 kb/s
Channel(s)                               : 6 channels
Channel positions                        : Front: L C R, Side: L R, LFE
Sampling rate                            : 48.0 kHz
Frame rate                               : 93.750 FPS (512 SPF)
Bit depth                                : 24 bits
Compression mode                         : Lossy
Stream size                              : 1.12 GiB (15%)
Language                                 : English
Default                                  : Yes
Forced                                   : No

Text
ID                                       : 3
Format                                   : UTF-8
Codec ID                                 : S_TEXT/UTF8
Codec ID/Info                            : UTF-8 Plain Text
Duration                                 : 1 h 42 min
Bit rate                                 : 66 b/s
Count of elements                        : 1961
Stream size                              : 50.0 KiB (0%)
Language                                 : English
Default                                  : Yes
Forced                                   : No

Menu
00:00:00.000                             : en:00:00:00.000
00:08:51.531                             : en:00:08:51.531
00:17:41.602                             : en:00:17:41.602
00:25:58.307                             : en:00:25:58.307
00:34:39.869                             : en:00:34:39.869
00:42:05.982                             : en:00:42:05.982
00:50:05.169                             : en:00:50:05.169
00:58:09.361                             : en:00:58:09.361
01:07:30.004                             : en:01:07:30.004
01:17:03.285                             : en:01:17:03.285
01:26:19.383                             : en:01:26:19.383
01:35:28.473                             : en:01:35:28.473




                                                                                                                                                                                                        
                                                                                                                                                                                                                                                                                                                                                                                                                                                                                                                                                                                                                                                                                                                                                                                                                         17b6207db08108e8bed2aead89b30017.zip (75.71 KB, 下载次数: 0)

回复

使用道具 举报

小黑屋|西西论坛

本网站所有资源来自网络,如无意中侵犯了您的权益,请发邮件至 [email protected],立即清除相关链接

GMT+8, 2020-8-10 18:33 , Processed in 0.113825 second(s), 23 queries .

Powered by Discuz! X3.2

© 2001-2013 Comsenz Inc.

快速回复 返回顶部 返回列表