西西论坛

 找回密码
 立即注册
搜索

吞咽/吞噬 Swallow.2019.720p.BluRay.x264-YOL0W 4.63GB

[复制链接]
电影首发 发表于 2020-7-26 09:49:44 | 显示全部楼层 |阅读模式
帖子完整标题:吞咽/吞噬 Swallow.2019.720p.BluRay.x264-YOL0W 4.63GB




◎译  名 吞咽 / 吞噬(台)
◎片  名 Swallow
◎年  代 2019
◎产  地 法国 / 美国
◎类  别 剧情 / 惊悚 / 恐怖
◎语  言 英语
◎上映日期 2019-04-28(翠贝卡电影节) / 2020-01-15(法国)
◎IMDb评分  6.4/10 from 8056 users
◎片  长 94分钟
◎导  演 卡洛·米拉贝拉-戴维斯 Carlo Mirabella-Davis
◎编  剧 卡洛·米拉贝拉-戴维斯 Carlo Mirabella-Davis
◎主  演 海莉·贝内特 Haley Bennett
       奥斯汀·斯托维尔 Austin Stowell
       丹尼斯·欧哈拉 Denis O'Hare
       伊丽莎白·玛维尔 Elizabeth Marvel
       大卫·拉斯彻 David Rasche
       劳伦·维勒斯 Lauren Vélez
       扎布丽娜·格瓦拉 Zabryna Guevara
       莱斯·纳克里 Laith Nakli
       Babak Tafti
       妮科尔·康 Nicole Kang
       Olivia Perez
       Kristi Kirk
       Alyssa Bresnahan
       Maya Days
       爱丽丝·桑多拉 Elise Santora
       迈拉·卢克利希亚·泰勒 Myra Lucretia Taylor
       麦格雷戈里·弗雷德里克  McGregory Frederique


◎标  签 惊悚 | 女性 | 剧情 | 美国 | 心理 | 2019 | 法国 | 美国电影

◎简  介   

  讲述家庭主妇亨特怀孕后,发现自己逐渐抑制不住地吞下危险物品,随着她的丈夫和家庭加强对她的控制,她必须直面有关迷恋危险物品的黑暗秘密。
Video
ID                                       : 1
Format                                   : AVC
Format/Info                              : Advanced Video Codec
Format settings                          : CABAC / 8 Ref Frames
Format settings, CABAC                   : Yes
Format settings, Reference frames        : 8 frames
Codec ID                                 : V_MPEG4/ISO/AVC
Duration                                 : 1 h 35 min
Bit rate                                 : 6 299 kb/s
Width                                    : 1 280 pixels
Height                                   : 536 pixels
Display aspect ratio                     : 2.40:1
Frame rate mode                          : Constant
Frame rate                               : 23.976 (24000/1001/189150) FPS
Color space                              : YUV
Chroma subsampling                       : 4:2:0
Bit depth                                : 8 bits
Scan type                                : Progressive
Bits/(Pixel*Frame)                       : 0.383
Stream size                              : 4.19 GiB (90%)
Writing library                          : x264 core 161 r3018 db0d417
Encoding settings                        : cabac=1 / ref=8 / deblock=1:-3:-3 / analyse=0x3:0x133 / me=umh / subme=9 / psy=1 / psy_rd=1.00:0.00 / mixed_ref=1 / me_range=24 / chroma_me=1 / trellis=2 / 8x8dct=1 / cqm=0 / deadzone=21,11 / fast_pskip=0 / chroma_qp_offset=-2 / threads=17 / lookahead_threads=1 / sliced_threads=0 / nr=0 / decimate=1 / interlaced=0 / bluray_compat=0 / constrained_intra=0 / bframes=3 / b_pyramid=2 / b_adapt=2 / b_bias=0 / direct=3 / weightb=1 / open_gop=0 / weightp=2 / keyint=250 / keyint_min=23 / scenecut=40 / intra_refresh=0 / rc=crf / mbtree=0 / crf=15.8 / qcomp=0.60 / qpmin=0 / qpmax=69 / qpstep=4 / ip_ratio=1.40 / pb_ratio=1.30 / aq=3:0.80
Default                                  : Yes
Forced                                   : No
Color range                              : Limited
Matrix coefficients                      : BT.709

Audio
ID                                       : 2
Format                                   : AC-3
Format/Info                              : Audio Coding 3
Commercial name                          : Dolby Digital
Codec ID                                 : A_AC3
Duration                                 : 1 h 35 min
Bit rate mode                            : Constant
Bit rate                                 : 640 kb/s
Channel(s)                               : 6 channels
Channel layout                           : L R C LFE Ls Rs
Sampling rate                            : 48.0 kHz
Frame rate                               : 31.250 FPS (1536 SPF)
Bit depth                                : 16 bits
Compression mode                         : Lossy
Stream size                              : 436 MiB (9%)
Title                                    : English
Language                                 : English
Service kind                             : Complete Main
Default                                  : Yes
Forced                                   : No

Text #1
ID                                       : 3
Format                                   : PGS
Muxing mode                              : zlib
Codec ID                                 : S_HDMV/PGS
Codec ID/Info                            : Picture based subtitle format used on BDs/HD-DVDs
Duration                                 : 1 h 34 min
Bit rate                                 : 22.4 kb/s
Count of elements                        : 1671
Stream size                              : 15.1 MiB (0%)
Language                                 : English
Default                                  : No
Forced                                   : No

Text #2
ID                                       : 4
Format                                   : PGS
Muxing mode                              : zlib
Codec ID                                 : S_HDMV/PGS
Codec ID/Info                            : Picture based subtitle format used on BDs/HD-DVDs
Duration                                 : 1 h 32 min
Bit rate                                 : 21.0 kb/s
Count of elements                        : 1428
Stream size                              : 13.9 MiB (0%)
Language                                 : Spanish
Default                                  : No
Forced                                   : No

Menu
00:00:00.000                             : en:Chapter 01
00:07:38.333                             : en:Chapter 02
00:15:57.498                             : en:Chapter 03
00:21:35.794                             : en:Chapter 04
00:29:09.748                             : en:Chapter 05
00:36:35.235                             : en:Chapter 06
00:45:46.410                             : en:Chapter 07
00:55:39.545                             : en:Chapter 08
01:03:59.586                             : en:Chapter 09
01:10:50.079                             : en:Chapter 10
01:18:37.004                             : en:Chapter 11
01:29:34.703                             : en:Chapter 12




                                                                                                                                                                                                        
                                                                                                                                                                                                                                                                                                                                                                                                                                                                                                                                                                               6a100f9987a07865ecfcfe9ba033aa91.zip (47.45 KB, 下载次数: 0)

回复

使用道具 举报

小黑屋|西西论坛

本网站所有资源来自网络,如无意中侵犯了您的权益,请发邮件至 [email protected],立即清除相关链接

GMT+8, 2020-8-11 05:04 , Processed in 0.127367 second(s), 23 queries .

Powered by Discuz! X3.2

© 2001-2013 Comsenz Inc.

快速回复 返回顶部 返回列表