西西论坛

 找回密码
 立即注册
搜索

若能与你共乘海浪之上 Ride.Your.Wave.2019.720p.BluRay.x264-WUTANG 4....

[复制链接]
电影首发 发表于 2020-7-26 09:49:44 | 显示全部楼层 |阅读模式
帖子完整标题:若能与你共乘海浪之上 Ride.Your.Wave.2019.720p.BluRay.x264-WUTANG 4.36GB




◎译  名 若能与你共乘海浪之上 / If Riding a Wave, with You / Ride Your Wave / 乘浪之约(台) / 你和我,如果被海浪吞没 / 浪尖上的约定(港) / 若与你共乘海浪之上 / 若能与你乘风破浪 / 若能与你共乘波浪 / 若能和你共乘波浪
◎片  名 きみと、波にのれたら
◎年  代 2019
◎产  地 日本
◎类  别 爱情 / 动画 / 奇幻
◎语  言 日语
◎上映日期 2019-06-21(日本) / 2019-12-07(中国大陆)
◎IMDb评分  6.8/10 from 813 users
◎片  长 96分钟
◎导  演 汤浅政明 Masaaki Yuasa
◎编  剧 吉田玲子 Reiko Yoshida
◎主  演 片寄凉太 Katayose Ryota
       川荣李奈 Rina Kawaei
       松本穗香 Honoka Matsumoto
       伊藤健太郎 Kentaro Ito


◎标  签 日本 | 汤浅政明 | 爱情 | 日本动画 | 动画 | 动画电影 | 2019 | 青春

◎简  介   

  夏天、阳光,沙滩、海浪,青年消防员雏罂粟港和爱好冲浪的向水日菜子相遇并迅速展开热恋。看似命中注定的这对恋人,却不幸遭遇生死别离。无法接受港已经离世的雏子,某天突然发现,只要唱起属于两个人的那首歌,港就会从水中出现……

◎获奖情况  

  第29届安锡国际动画节(2019)
  长篇动画单元 长片水晶奖(提名) 汤浅政明

  第22届上海国际电影节(2019)
  金爵奖 最佳动画片 汤浅政明
Video
ID                                       : 1
Format                                   : AVC
Format/Info                              : Advanced Video Codec
Format settings                          : CABAC / 9 Ref Frames
Format settings, CABAC                   : Yes
Format settings, Reference frames        : 9 frames
Codec ID                                 : V_MPEG4/ISO/AVC
Duration                                 : 1 h 35 min
Bit rate                                 : 5 137 kb/s
Width                                    : 1 280 pixels
Height                                   : 720 pixels
Display aspect ratio                     : 16:9
Frame rate mode                          : Constant
Frame rate                               : 23.976 (24000/1001/189150) FPS
Color space                              : YUV
Chroma subsampling                       : 4:2:0
Bit depth                                : 8 bits
Scan type                                : Progressive
Bits/(Pixel*Frame)                       : 0.232
Stream size                              : 3.44 GiB (79%)
Writing library                          : x264 core 161 r3018 db0d417
Encoding settings                        : cabac=1 / ref=9 / deblock=1:1:1 / analyse=0x3:0x133 / me=umh / subme=9 / psy=1 / psy_rd=0.50:0.00 / mixed_ref=1 / me_range=24 / chroma_me=1 / trellis=2 / 8x8dct=1 / cqm=0 / deadzone=21,11 / fast_pskip=0 / chroma_qp_offset=-2 / threads=22 / lookahead_threads=2 / sliced_threads=0 / nr=0 / decimate=1 / interlaced=0 / bluray_compat=0 / constrained_intra=0 / bframes=5 / b_pyramid=2 / b_adapt=2 / b_bias=0 / direct=3 / weightb=1 / open_gop=0 / weightp=2 / keyint=250 / keyint_min=23 / scenecut=40 / intra_refresh=0 / rc=crf / mbtree=0 / crf=14.0 / qcomp=0.60 / qpmin=0 / qpmax=69 / qpstep=4 / ip_ratio=1.40 / pb_ratio=1.30 / aq=3:0.90
Default                                  : Yes
Forced                                   : No
Color range                              : Limited
Matrix coefficients                      : BT.709

Audio #1
ID                                       : 2
Format                                   : AC-3
Format/Info                              : Audio Coding 3
Commercial name                          : Dolby Digital
Codec ID                                 : A_AC3
Duration                                 : 1 h 35 min
Bit rate mode                            : Constant
Bit rate                                 : 640 kb/s
Channel(s)                               : 6 channels
Channel layout                           : L R C LFE Ls Rs
Sampling rate                            : 48.0 kHz
Frame rate                               : 31.250 FPS (1536 SPF)
Bit depth                                : 16 bits
Compression mode                         : Lossy
Stream size                              : 439 MiB (10%)
Title                                    : Japanese
Language                                 : Japanese
Service kind                             : Complete Main
Default                                  : Yes
Forced                                   : No

Audio #2
ID                                       : 3
Format                                   : AC-3
Format/Info                              : Audio Coding 3
Commercial name                          : Dolby Digital
Codec ID                                 : A_AC3
Duration                                 : 1 h 35 min
Bit rate mode                            : Constant
Bit rate                                 : 640 kb/s
Channel(s)                               : 6 channels
Channel layout                           : L R C LFE Ls Rs
Sampling rate                            : 48.0 kHz
Frame rate                               : 31.250 FPS (1536 SPF)
Bit depth                                : 16 bits
Compression mode                         : Lossy
Stream size                              : 439 MiB (10%)
Title                                    : English Dub
Language                                 : English
Service kind                             : Complete Main
Default                                  : No
Forced                                   : No

Text #1
ID                                       : 4
Format                                   : UTF-8
Codec ID                                 : S_TEXT/UTF8
Codec ID/Info                            : UTF-8 Plain Text
Duration                                 : 1 h 30 min
Bit rate                                 : 66 b/s
Count of elements                        : 1188
Stream size                              : 44.0 KiB (0%)
Title                                    : English Forced
Language                                 : English
Default                                  : Yes
Forced                                   : Yes

Text #2
ID                                       : 5
Format                                   : UTF-8
Codec ID                                 : S_TEXT/UTF8
Codec ID/Info                            : UTF-8 Plain Text
Duration                                 : 1 h 28 min
Bit rate                                 : 0 b/s
Count of elements                        : 18
Stream size                              : 514 Bytes (0%)
Title                                    : English Forced for English Dub
Language                                 : English
Default                                  : No
Forced                                   : No

Text #3
ID                                       : 6
Format                                   : PGS
Muxing mode                              : zlib
Codec ID                                 : S_HDMV/PGS
Codec ID/Info                            : Picture based subtitle format used on BDs/HD-DVDs
Duration                                 : 1 h 34 min
Bit rate                                 : 38.9 kb/s
Count of elements                        : 3493
Stream size                              : 26.4 MiB (1%)
Language                                 : English
Default                                  : No
Forced                                   : No

Text #4
ID                                       : 7
Format                                   : PGS
Muxing mode                              : zlib
Codec ID                                 : S_HDMV/PGS
Codec ID/Info                            : Picture based subtitle format used on BDs/HD-DVDs
Duration                                 : 1 h 34 min
Bit rate                                 : 30.7 kb/s
Count of elements                        : 2377
Stream size                              : 20.8 MiB (0%)
Language                                 : English
Default                                  : No
Forced                                   : No

Text #5
ID                                       : 8
Format                                   : PGS
Muxing mode                              : zlib
Codec ID                                 : S_HDMV/PGS
Codec ID/Info                            : Picture based subtitle format used on BDs/HD-DVDs
Duration                                 : 1 h 34 min
Bit rate                                 : 32.4 kb/s
Count of elements                        : 2373
Stream size                              : 21.9 MiB (0%)
Language                                 : Spanish
Default                                  : No
Forced                                   : No

Text #6
ID                                       : 9
Format                                   : PGS
Muxing mode                              : zlib
Codec ID                                 : S_HDMV/PGS
Codec ID/Info                            : Picture based subtitle format used on BDs/HD-DVDs
Duration                                 : 1 h 34 min
Bit rate                                 : 33.4 kb/s
Count of elements                        : 2377
Stream size                              : 22.6 MiB (1%)
Language                                 : French
Default                                  : No
Forced                                   : No

Text #7
ID                                       : 10
Format                                   : PGS
Muxing mode                              : zlib
Codec ID                                 : S_HDMV/PGS
Codec ID/Info                            : Picture based subtitle format used on BDs/HD-DVDs
Duration                                 : 1 h 33 min
Bit rate                                 : 487 b/s
Count of elements                        : 37
Stream size                              : 332 KiB (0%)
Language                                 : English
Default                                  : No
Forced                                   : No

Menu
00:00:00.000                             : en:Chapter 01
00:06:45.405                             : en:Chapter 02
00:12:07.644                             : en:Chapter 03
00:18:27.064                             : en:Chapter 04
00:24:34.014                             : en:Chapter 05
00:31:26.009                             : en:Chapter 06
00:37:06.182                             : en:Chapter 07
00:42:39.390                             : en:Chapter 08
00:50:06.253                             : en:Chapter 09
00:57:33.450                             : en:Chapter 10
01:02:21.404                             : en:Chapter 11
01:07:57.365                             : en:Chapter 12
01:13:41.208                             : en:Chapter 13
01:18:44.637                             : en:Chapter 14
01:23:41.266                             : en:Chapter 15
01:28:18.668                             : en:Chapter 16
01:31:59.848                             : en:Chapter 17




                                                                                                                                                                                                        
                                                                                                                                                                                                                                                                                                                                                                                                                                                                                                                                                                               da3371ee15dc98894372df58056a5aeb.zip (44.7 KB, 下载次数: 0)

回复

使用道具 举报

小黑屋|西西论坛

本网站所有资源来自网络,如无意中侵犯了您的权益,请发邮件至 [email protected],立即清除相关链接

GMT+8, 2020-8-11 05:58 , Processed in 0.118517 second(s), 23 queries .

Powered by Discuz! X3.2

© 2001-2013 Comsenz Inc.

快速回复 返回顶部 返回列表