西西论坛

 找回密码
 立即注册
搜索

平原上的夏洛克 Rebuilding.2019.1080p.BluRay.x264-MiCiUS 12.50GB

[复制链接]
电影首发 发表于 2020-7-24 09:47:03 | 显示全部楼层 |阅读模式
帖子完整标题:平原上的夏洛克 Rebuilding.2019.1080p.BluRay.x264-MiCiUS 12.50GB




◎译  名 Rebuilding / Summer Detective
◎片  名 平原上的夏洛克
◎年  代 2019
◎产  地 中国大陆
◎类  别 剧情 / 喜剧 / 悬疑
◎语  言 汉语普通话
◎上映日期 2019-07-22(FIRST青年影展) / 2019-11-29(中国大陆)
◎IMDb评分  6.8/10 from 224 users
◎片  长 98分钟
◎导  演 徐磊 Lei Xu
◎编  剧 徐磊 Lei Xu
◎主  演 徐朝英 Chaoying Xu
       张占义
       宿树河


◎标  签 农村 | 小人物 | 喜剧 | 剧情 | 中国 | FIRST青年电影展 | 2019 | 中国大陆

◎简  介   

  超英翻盖新房 ,占义、树河前来帮忙,没想到树河却因意外车祸入院,司机肇事逃逸,超英和占义化身“平原侦探”,踏上了一段令人啼笑皆非的荒诞追凶之旅。

◎获奖情况  

  第13届FIRST青年电影展(2019)
  竞赛 最佳剧情长片(提名) 徐磊
  竞赛 最佳电影文本

  第6届豆瓣电影年度榜单(2019)
  评分最高的喜剧片(提名)
Video
ID                                       : 1
Format                                   : AVC
Format/Info                              : Advanced Video Codec
Format settings                          : CABAC / 5 Ref Frames
Format settings, CABAC                   : Yes
Format settings, Reference frames        : 5 frames
Codec ID                                 : V_MPEG4/ISO/AVC
Duration                                 : 1 h 34 min
Bit rate                                 : 16.3 Mb/s
Width                                    : 1 920 pixels
Height                                   : 804 pixels
Display aspect ratio                     : 2.40:1
Frame rate mode                          : Constant
Frame rate                               : 25.000 FPS
Color space                              : YUV
Chroma subsampling                       : 4:2:0
Bit depth                                : 8 bits
Scan type                                : Progressive
Bits/(Pixel*Frame)                       : 0.423
Stream size                              : 10.8 GiB (86%)
Writing library                          : x264 core 161 r3018 db0d417
Encoding settings                        : cabac=1 / ref=5 / deblock=1:-3:-3 / analyse=0x3:0x133 / me=umh / subme=9 / psy=1 / psy_rd=1.00:0.00 / mixed_ref=1 / me_range=24 / chroma_me=1 / trellis=2 / 8x8dct=1 / cqm=0 / deadzone=21,11 / fast_pskip=0 / chroma_qp_offset=-2 / threads=9 / lookahead_threads=1 / sliced_threads=0 / nr=0 / decimate=0 / interlaced=0 / bluray_compat=0 / constrained_intra=0 / bframes=3 / b_pyramid=2 / b_adapt=2 / b_bias=0 / direct=3 / weightb=1 / open_gop=0 / weightp=2 / keyint=250 / keyint_min=25 / scenecut=40 / intra_refresh=0 / rc_lookahead=60 / rc=crf / mbtree=0 / crf=15.5 / qcomp=0.60 / qpmin=0 / qpmax=69 / qpstep=4 / vbv_maxrate=62500 / vbv_bufsize=78125 / crf_max=0.0 / nal_hrd=none / filler=0 / ip_ratio=1.40 / pb_ratio=1.30 / aq=3:0.80
Default                                  : Yes
Forced                                   : No

Audio #1
ID                                       : 2
Format                                   : DTS XLL
Format/Info                              : Digital Theater Systems
Commercial name                          : DTS-HD Master Audio
Codec ID                                 : A_DTS
Duration                                 : 1 h 34 min
Bit rate mode                            : Variable
Bit rate                                 : 2 373 kb/s
Channel(s)                               : 6 channels
Channel layout                           : C L R Ls Rs LFE
Sampling rate                            : 48.0 kHz
Frame rate                               : 93.750 FPS (512 SPF)
Bit depth                                : 16 bits
Compression mode                         : Lossless
Stream size                              : 1.57 GiB (13%)
Language                                 : Chinese
Default                                  : Yes
Forced                                   : No

Audio #2
ID                                       : 3
Format                                   : AAC LC
Format/Info                              : Advanced Audio Codec Low Complexity
Codec ID                                 : A_AAC-2
Duration                                 : 1 h 34 min
Bit rate                                 : 166 kb/s
Channel(s)                               : 2 channels
Channel layout                           : L R
Sampling rate                            : 48.0 kHz
Frame rate                               : 46.875 FPS (1024 SPF)
Compression mode                         : Lossy
Stream size                              : 112 MiB (1%)
Title                                    : Commentary
Language                                 : Chinese
Default                                  : No
Forced                                   : No

Text #1
ID                                       : 4
Format                                   : PGS
Muxing mode                              : zlib
Codec ID                                 : S_HDMV/PGS
Codec ID/Info                            : Picture based subtitle format used on BDs/HD-DVDs
Duration                                 : 1 h 30 min
Bit rate                                 : 22.3 kb/s
Count of elements                        : 1794
Stream size                              : 14.5 MiB (0%)
Language                                 : English
Default                                  : No
Forced                                   : No

Text #2
ID                                       : 5
Format                                   : UTF-8
Codec ID                                 : S_TEXT/UTF8
Codec ID/Info                            : UTF-8 Plain Text
Duration                                 : 1 h 28 min
Bit rate                                 : 33 b/s
Count of elements                        : 961
Stream size                              : 21.9 KiB (0%)
Language                                 : English
Default                                  : Yes
Forced                                   : Yes

Text #3
ID                                       : 6
Format                                   : PGS
Muxing mode                              : zlib
Codec ID                                 : S_HDMV/PGS
Codec ID/Info                            : Picture based subtitle format used on BDs/HD-DVDs
Duration                                 : 1 h 30 min
Bit rate                                 : 17.1 kb/s
Count of elements                        : 1795
Stream size                              : 11.1 MiB (0%)
Language                                 : Chinese
Default                                  : No
Forced                                   : No

Menu
00:00:00.000                             : :Chapter 01
00:06:49.120                             : :Chapter 02
00:15:42.200                             : :Chapter 03
00:23:39.680                             : :Chapter 04
00:30:29.160                             : :Chapter 05
00:43:08.040                             : :Chapter 06
00:55:13.040                             : :Chapter 07
01:04:49.280                             : :Chapter 08
01:10:44.240                             : :Chapter 09
01:15:04.840                             : :Chapter 10
01:22:43.600                             : :Chapter 11
01:28:37.640                             : :Chapter 12




                                                                                                                                                                                                        
                                                                                                                                                                                                                                                                                                                                                                                                                                                                                                                                                             c9993c0ede170825cfad9b8f9859ea62.zip (63.62 KB, 下载次数: 0)

回复

使用道具 举报

小黑屋|西西论坛

本网站所有资源来自网络,如无意中侵犯了您的权益,请发邮件至 [email protected],立即清除相关链接

GMT+8, 2020-8-15 10:14 , Processed in 0.127000 second(s), 23 queries .

Powered by Discuz! X3.2

© 2001-2013 Comsenz Inc.

快速回复 返回顶部 返回列表