西西论坛

 找回密码
 立即注册
搜索

无声的抵抗/抵抗 Resistance.2020.720p.BluRay.x264-GECKOS 5.06GB

[复制链接]
电影首发 发表于 2020-7-24 09:36:41 | 显示全部楼层 |阅读模式
帖子完整标题:无声的抵抗/抵抗 Resistance.2020.720p.BluRay.x264-GECKOS 5.06GB




◎译  名 无声的抵抗 / 抵抗 / 无声救援(台) / 无声的反抗
◎片  名 Resistance
◎年  代 2020
◎产  地 法国 / 美国 / 德国 / 英国
◎类  别 剧情 / 传记 / 历史 / 战争
◎语  言 英语
◎上映日期 2020-03-27(美国)
◎片  长 121分钟
◎导  演 乔纳森·加库波维兹 Jonathan Jakubowicz
◎编  剧 乔纳森·加库波维兹 Jonathan Jakubowicz
◎主  演 杰西·艾森伯格 Jesse Eisenberg
       艾德·哈里斯 Ed Harris
       克蕾曼丝·波西 Clémence Poésy
       马提亚斯·施维赫夫 Matthias Schweigh?fer
       埃德加·拉米雷兹 édgar Ramírez
       费利克斯·莫阿蒂 Félix Moati
       盖佐·罗赫里格 Géza R?hrig
       卡尔·马克维斯 Karl Markovics
       维卡·克里克斯 Vica Kerekes
       贝拉·拉姆齐 Bella Ramsey
       艾丽西娅·冯·里特贝格 Alicia von Rittberg
       阿尔恩特·施韦林·索瑞 Arndt Schwering-Sohnrey
       Philip Lenkowsky
       Aurélie Bancilhon
       Karina Beuthe Orr


◎标  签 二战 | 传记 | 战争 | 历史 | 杰西·艾森伯格 | 法国 | 2020 | 美国

◎简  介   

  海莉·贝内特、马提亚斯·施维赫夫商谈加盟杰西·艾森伯格主演二战题材新片《抵抗》(Resistance),聚焦传奇法国哑剧艺术家马塞尔·马索。《顽石之拳》导演Jonathan Jakubowicz执导并编写剧本,讲述马索的人生经历,以及在二战时期参与法国抵抗运动的故事。
  贝内特饰演艾玛,一位抵抗运动的斗争者,她在鼓舞马索与她一起拯救成千上万的孩子,并带领他们走出法国前往瑞士的过程中扮演了至关重要的角色。施维赫夫饰演臭名昭著的党卫军指挥官Klaus Barbie,他被阿道夫·希特勒亲自指派去破坏抵抗运动,对马索和他的同伴们带到安全区域的孤儿们保有特别的憎恨。
  Marcel的长子Baptiste Marceau将担任执行制片人,熙颐影业购得中国发行权,秋季开拍。
  Marcel Marceau父亲来自斯特拉斯堡,是位犹太屠夫,在奥斯威辛集中营被杀害,因此他学习哑剧来求生,并帮助犹太孤儿们。Marceau最出名的角色是白脸小丑“毕普先生”,他的专业表演生涯长达60多年,于2007年逝世,享年84岁。
Video
ID                                       : 1
Format                                   : AVC
Format/Info                              : Advanced Video Codec
Format settings                          : CABAC / 8 Ref Frames
Format settings, CABAC                   : Yes
Format settings, Reference frames        : 8 frames
Codec ID                                 : V_MPEG4/ISO/AVC
Duration                                 : 2 h 1 min
Bit rate                                 : 5 303 kb/s
Width                                    : 1 280 pixels
Height                                   : 534 pixels
Display aspect ratio                     : 2.40:1
Frame rate mode                          : Constant
Frame rate                               : 23.976 (24000/1001/189150) FPS
Color space                              : YUV
Chroma subsampling                       : 4:2:0
Bit depth                                : 8 bits
Scan type                                : Progressive
Bits/(Pixel*Frame)                       : 0.324
Stream size                              : 4.49 GiB (89%)
Writing library                          : x264 core 161 r3018 db0d417
Encoding settings                        : cabac=1 / ref=8 / deblock=1:-3:-3 / analyse=0x3:0x133 / me=umh / subme=9 / psy=1 / psy_rd=1.20:0.00 / mixed_ref=1 / me_range=16 / chroma_me=1 / trellis=2 / 8x8dct=1 / cqm=0 / deadzone=21,11 / fast_pskip=0 / chroma_qp_offset=-2 / threads=17 / lookahead_threads=1 / sliced_threads=0 / nr=0 / decimate=0 / interlaced=0 / bluray_compat=0 / constrained_intra=0 / bframes=3 / b_pyramid=2 / b_adapt=2 / b_bias=0 / direct=3 / weightb=1 / open_gop=0 / weightp=2 / keyint=250 / keyint_min=23 / scenecut=40 / intra_refresh=0 / rc=crf / mbtree=0 / crf=16.0 / qcomp=0.60 / qpmin=0 / qpmax=69 / qpstep=4 / ip_ratio=1.40 / pb_ratio=1.30 / aq=3:0.90
Default                                  : Yes
Forced                                   : No
Color range                              : Limited
Matrix coefficients                      : BT.709

Audio
ID                                       : 2
Format                                   : AC-3
Format/Info                              : Audio Coding 3
Commercial name                          : Dolby Digital
Codec ID                                 : A_AC3
Duration                                 : 2 h 1 min
Bit rate mode                            : Constant
Bit rate                                 : 640 kb/s
Channel(s)                               : 6 channels
Channel layout                           : L R C LFE Ls Rs
Sampling rate                            : 48.0 kHz
Frame rate                               : 31.250 FPS (1536 SPF)
Bit depth                                : 16 bits
Compression mode                         : Lossy
Stream size                              : 555 MiB (11%)
Language                                 : English
Service kind                             : Complete Main
Default                                  : Yes
Forced                                   : No

Text #1
ID                                       : 3
Format                                   : PGS
Muxing mode                              : zlib
Codec ID                                 : S_HDMV/PGS
Codec ID/Info                            : Picture based subtitle format used on BDs/HD-DVDs
Duration                                 : 1 h 59 min
Bit rate                                 : 20.9 kb/s
Count of elements                        : 1838
Stream size                              : 17.8 MiB (0%)
Title                                    : SDH
Language                                 : English
Default                                  : No
Forced                                   : No

Text #2
ID                                       : 4
Format                                   : PGS
Muxing mode                              : zlib
Codec ID                                 : S_HDMV/PGS
Codec ID/Info                            : Picture based subtitle format used on BDs/HD-DVDs
Duration                                 : 1 h 55 min
Bit rate                                 : 21.6 kb/s
Count of elements                        : 1711
Stream size                              : 17.9 MiB (0%)
Language                                 : Spanish
Default                                  : No
Forced                                   : No

Menu
00:00:00.000                             : en:Chapter 01
00:10:10.193                             : en:Chapter 02
00:22:19.964                             : en:Chapter 03
00:32:50.302                             : en:Chapter 04
00:40:27.175                             : en:Chapter 05
00:51:29.920                             : en:Chapter 06
01:00:17.239                             : en:Chapter 07
01:12:19.669                             : en:Chapter 08
01:21:58.038                             : en:Chapter 09
01:33:52.377                             : en:Chapter 10
01:46:57.119                             : en:Chapter 11
01:55:20.330                             : en:Chapter 12




                                                                                                                                                                                                        
                                                                                                                                                                                                                                                                                                                                                                                                                                                                                                                                                                            798e2dd80f717d3ef1fd87f7b8104dc8.zip (25.97 KB, 下载次数: 0)

回复

使用道具 举报

小黑屋|西西论坛

本网站所有资源来自网络,如无意中侵犯了您的权益,请发邮件至 [email protected],立即清除相关链接

GMT+8, 2020-8-11 06:27 , Processed in 0.097458 second(s), 28 queries .

Powered by Discuz! X3.2

© 2001-2013 Comsenz Inc.

快速回复 返回顶部 返回列表