西西论坛

 找回密码
 立即注册
搜索

卡彭 Capone.2020.720p.BluRay.x264-ROVERS 3.58GB

[复制链接]
电影首发 发表于 2020-7-24 09:36:41 | 显示全部楼层 |阅读模式
帖子完整标题:卡彭 Capone.2020.720p.BluRay.x264-ROVERS 3.58GB




◎译  名 卡彭 / Fonzo / 方索 / 疤面教父(台)
◎片  名 Capone
◎年  代 2020
◎产  地 加拿大 / 美国
◎类  别 剧情 / 传记 / 犯罪
◎语  言 英语 / 意大利语
◎上映日期 2020-05-12(美国)
◎片  长 103分钟
◎导  演 乔什·特兰克 Josh Trank
◎编  剧 乔什·特兰克 Josh Trank
◎主  演 汤姆·哈迪 Tom Hardy
       琳达·卡德里尼 Linda Cardellini
       马特·狄龙 Matt Dillon
       凯尔·麦克拉克伦 Kyle MacLachlan
       杰克·劳登 Jack Lowden
       诺尔·费舍 Noel Fisher
       吉诺·卡法雷利 Gino Cafarelli
       阿尔·萨皮恩扎 Al Sapienza
       凯瑟琳·纳杜奇 Kathrine Narducci
       埃德加·阿雷拉 Edgar Arreola
       韦恩·佩雷 Wayne Pére
       梅森·古乔内 Mason Guccione
       佩蒂·布林德利 Patti Brindley
       大卫·瓦克斯 David Wachs
       乔恩·亚瑟 Jon Arthur
       朱莉娅·霍特 Julia Holt
       Sue-Lynn Ansari
       Tilda Del Toro
       Jhemma Ziegler
       Rebecca Chulew


◎标  签 汤姆·哈迪 | 传记 | 黑帮 | 犯罪 | 美国 | TomHardy | 汤姆哈迪 | 美国电影

◎简  介   

  聚焦美国“暴徒时代”黑手党头目艾尔·卡彭。故事从这位经历了十多年牢狱生涯、已经47岁的黑手党教父讲起,此时的艾尔·卡彭饱受老年痴呆症困扰。
Video
ID                                       : 1
Format                                   : AVC
Format/Info                              : Advanced Video Codec
Format settings                          : CABAC / 8 Ref Frames
Format settings, CABAC                   : Yes
Format settings, Reference frames        : 8 frames
Codec ID                                 : V_MPEG4/ISO/AVC
Duration                                 : 1 h 43 min
Bit rate                                 : 4 283 kb/s
Width                                    : 1 280 pixels
Height                                   : 534 pixels
Display aspect ratio                     : 2.40:1
Frame rate mode                          : Constant
Frame rate                               : 23.976 (24000/1001/189150) FPS
Color space                              : YUV
Chroma subsampling                       : 4:2:0
Bit depth                                : 8 bits
Scan type                                : Progressive
Bits/(Pixel*Frame)                       : 0.261
Stream size                              : 3.11 GiB (87%)
Writing library                          : x264 core 161 r3015 4c2aafd
Encoding settings                        : cabac=1 / ref=8 / deblock=1:-3:-3 / analyse=0x3:0x133 / me=umh / subme=9 / psy=1 / psy_rd=1.00:0.00 / mixed_ref=1 / me_range=16 / chroma_me=1 / trellis=2 / 8x8dct=1 / cqm=0 / deadzone=21,11 / fast_pskip=1 / chroma_qp_offset=-2 / threads=17 / lookahead_threads=1 / sliced_threads=0 / nr=0 / decimate=1 / interlaced=0 / bluray_compat=0 / constrained_intra=0 / bframes=3 / b_pyramid=2 / b_adapt=2 / b_bias=0 / direct=3 / weightb=1 / open_gop=0 / weightp=2 / keyint=250 / keyint_min=23 / scenecut=40 / intra_refresh=0 / rc_lookahead=60 / rc=crf / mbtree=1 / crf=15.0 / qcomp=0.60 / qpmin=0 / qpmax=69 / qpstep=4 / ip_ratio=1.40 / aq=1:1.00
Language                                 : English
Default                                  : Yes
Forced                                   : No

Audio
ID                                       : 2
Format                                   : AC-3
Format/Info                              : Audio Coding 3
Commercial name                          : Dolby Digital
Codec ID                                 : A_AC3
Duration                                 : 1 h 43 min
Bit rate mode                            : Constant
Bit rate                                 : 640 kb/s
Channel(s)                               : 6 channels
Channel layout                           : L R C LFE Ls Rs
Sampling rate                            : 48.0 kHz
Frame rate                               : 31.250 FPS (1536 SPF)
Bit depth                                : 16 bits
Compression mode                         : Lossy
Stream size                              : 476 MiB (13%)
Language                                 : English
Service kind                             : Complete Main
Default                                  : Yes
Forced                                   : No

Text
ID                                       : 3
Format                                   : PGS
Muxing mode                              : zlib
Codec ID                                 : S_HDMV/PGS
Codec ID/Info                            : Picture based subtitle format used on BDs/HD-DVDs
Duration                                 : 1 h 35 min
Bit rate                                 : 25.7 kb/s
Count of elements                        : 2370
Stream size                              : 17.6 MiB (0%)
Title                                    : English SDH
Language                                 : English
Default                                  : No
Forced                                   : No

Menu
00:00:00.000                             : :Chapter 01
00:12:44.055                             : :Chapter 02
00:31:39.564                             : :Chapter 03
00:55:52.516                             : :Chapter 04
01:17:14.129                             : :Chapter 05
01:32:59.032                             : :Chapter 06




                                                                                                                                                                                                        
                                                               47acfb05ad4bcfdabe6b90d8b2ecf98b.zip (36.48 KB, 下载次数: 0)

回复

使用道具 举报

小黑屋|西西论坛

本网站所有资源来自网络,如无意中侵犯了您的权益,请发邮件至 [email protected],立即清除相关链接

GMT+8, 2020-8-11 06:09 , Processed in 0.104409 second(s), 23 queries .

Powered by Discuz! X3.2

© 2001-2013 Comsenz Inc.

快速回复 返回顶部 返回列表