西西论坛

 找回密码
 立即注册
搜索

局外人/外来者 The.Outsider.2019.720p.BluRay.x264.DTS-FGT 4.22GB

[复制链接]
电影首发 发表于 2020-7-18 08:57:53 | 显示全部楼层 |阅读模式
帖子完整标题:局外人/外来者 The.Outsider.2019.720p.BluRay.x264.DTS-FGT 4.22GB




◎译  名 局外人 / 外来者
◎片  名 The Outsider
◎年  代 2019
◎产  地 美国
◎类  别 西部
◎语  言 英语
◎上映日期 2019-06-14(美国)
◎IMDb评分  5.6/10 from 1330 users
◎导  演 蒂莫西·伍德沃 Timothy Woodward Jr.
◎编  剧 Sean Ryan
◎主  演 约翰·芬 Jon Foo
       特雷斯·阿德金斯 Trace Adkins
       肖恩·派特里克·弗兰纳里 Sean Patrick Flanery
       Kaiwi Lyman
       丹尼·特雷霍 Danny Trejo
       Mitchell L. Johnson
       Philip V. Bruenn
       Nelli Tsay
       Peter Sherayko
       Cara Fay


◎标  签 西部 | 美国 | 动作 | 2019 | 犯罪 | 剧情 | 肤浅 | 美国电影

◎简  介   

  美国西部某镇执法官的浪荡儿子,诬陷外来华人打工仔犯罪的同时,性侵华人打工仔老婆并致其死亡。华人打工仔大战疯狂报复,先后多名执法警察被杀。执法官在明知儿子不对的情况下,依然聘请了追踪者对打工仔开展追杀。打工仔打败追踪者,并成功获得一名正义追踪者的支持,开始继续报复行为。这边,执法官知道儿子兽性后,两人发生争执,儿子打死执法官父亲,同时高价聘请雇佣杀手。打工仔和正义追踪者都被雇佣杀手抓住,但两人最终挣脱并消灭了浪荡儿子和雇佣杀手。
Video
ID                                       : 1
Format                                   : AVC
Format/Info                              : Advanced Video Codec
Format settings                          : CABAC / 4 Ref Frames
Format settings, CABAC                   : Yes
Format settings, Reference frames        : 4 frames
Codec ID                                 : V_MPEG4/ISO/AVC
Duration                                 : 1 h 26 min
Bit rate                                 : 5 500 kb/s
Width                                    : 1 280 pixels
Height                                   : 464 pixels
Display aspect ratio                     : 2.759
Frame rate mode                          : Constant
Frame rate                               : 23.976 (24000/1001/189150) FPS
Color space                              : YUV
Chroma subsampling                       : 4:2:0
Bit depth                                : 8 bits
Scan type                                : Progressive
Bits/(Pixel*Frame)                       : 0.386
Stream size                              : 3.31 GiB (78%)
Title                                    : The.Outsider.2019.720p.BluRay.x264.DTS-FGT
Writing library                          : x264 core 148 r2748 97eaef2
Encoding settings                        : cabac=1 / ref=4 / deblock=1:-2:-2 / analyse=0x3:0x113 / me=umh / subme=9 / psy=1 / psy_rd=1.00:0.15 / mixed_ref=1 / me_range=16 / chroma_me=1 / trellis=2 / 8x8dct=1 / cqm=0 / deadzone=21,11 / fast_pskip=1 / chroma_qp_offset=-3 / threads=24 / lookahead_threads=3 / sliced_threads=0 / nr=0 / decimate=1 / interlaced=0 / bluray_compat=0 / constrained_intra=0 / bframes=3 / b_pyramid=2 / b_adapt=1 / b_bias=0 / direct=3 / weightb=1 / open_gop=0 / weightp=2 / keyint=250 / keyint_min=25 / scenecut=40 / intra_refresh=0 / rc_lookahead=50 / rc=2pass / mbtree=1 / bitrate=5500 / ratetol=1.0 / qcomp=0.60 / qpmin=0 / qpmax=69 / qpstep=4 / cplxblur=20.0 / qblur=0.5 / vbv_maxrate=31250 / vbv_bufsize=31250 / nal_hrd=none / filler=0 / ip_ratio=1.40 / aq=1:1.00
Language                                 : English
Default                                  : Yes
Forced                                   : No

Audio
ID                                       : 2
ID in the original source medium         : 4352 (0x1100)
Format                                   : DTS
Format/Info                              : Digital Theater Systems
Codec ID                                 : A_DTS
Duration                                 : 1 h 26 min
Bit rate mode                            : Constant
Bit rate                                 : 1 509 kb/s
Channel(s)                               : 6 channels
Channel layout                           : C L R Ls Rs LFE
Sampling rate                            : 48.0 kHz
Frame rate                               : 93.750 FPS (512 SPF)
Bit depth                                : 24 bits
Compression mode                         : Lossy
Stream size                              : 930 MiB (22%)
Title                                    : The.Outsider.2019.720p.BluRay.x264.DTS-FGT
Language                                 : English
Default                                  : No
Forced                                   : No
Original source medium                   : Blu-ray

Text
ID                                       : 3
Format                                   : UTF-8
Codec ID                                 : S_TEXT/UTF8
Codec ID/Info                            : UTF-8 Plain Text
Duration                                 : 1 h 12 min
Bit rate                                 : 30 b/s
Count of elements                        : 600
Stream size                              : 16.1 KiB (0%)
Language                                 : English
Default                                  : Yes
Forced                                   : No

Menu
00:00:00.000                             : en:Chapter 01
00:12:58.152                             : en:Chapter 02
00:30:42.090                             : en:Chapter 03
00:40:24.463                             : en:Chapter 04
00:46:12.686                             : en:Chapter 05
00:55:05.969                             : en:Chapter 06
01:07:17.158                             : en:Chapter 07
01:19:45.280                             : en:Chapter 08




                                                                                                                                                                                                        
                                                                                                                                                                                                                                                                                                                                    


00ff2ed4d16f9484e8e86e56f04ef95a.zip (42.85 KB, 下载次数: 0)

回复

使用道具 举报

小黑屋|西西论坛

本网站所有资源来自网络,如无意中侵犯了您的权益,请发邮件至 [email protected],立即清除相关链接

GMT+8, 2020-8-11 05:16 , Processed in 0.097175 second(s), 23 queries .

Powered by Discuz! X3.2

© 2001-2013 Comsenz Inc.

快速回复 返回顶部 返回列表