西西论坛

 找回密码
 立即注册
搜索

婚姻故事 Marriage.Story.2019.720p.BluRay.x264-YOL0W 7.84GB

[复制链接]
电影首发 发表于 2020-7-16 09:05:10 | 显示全部楼层 |阅读模式
帖子完整标题:婚姻故事 Marriage.Story.2019.720p.BluRay.x264-YOL0W 7.84GB




◎译  名 婚姻故事
◎片  名 Marriage Story
◎年  代 2019
◎产  地 英国 / 美国
◎类  别 剧情 / 爱情
◎语  言 英语
◎上映日期 2019-08-29(威尼斯电影节) / 2019-12-06(美国) / 2020-05-20(中国大陆网络)
◎IMDb评分  8.0/10 from 219994 users
◎片  长 136分钟
◎导  演 诺亚·鲍姆巴赫 Noah Baumbach
◎编  剧 诺亚·鲍姆巴赫 Noah Baumbach
◎主  演 斯嘉丽·约翰逊 Scarlett Johansson
       亚当·德赖弗 Adam Driver
       劳拉·邓恩 Laura Dern
       艾奇·罗伯逊 Azhy Robertson
       梅里特·韦弗 Merritt Wever
       阿伦·阿尔达 Alan Alda
       朱丽·哈基提 Julie Hagerty
       雷·利奥塔 Ray Liotta
       马克·奥布莱恩 Mark O'Brien
       华莱士·肖恩 Wallace Shawn
       凯尔·柏海莫 Kyle Bornheimer
       米奇·萨姆纳 Mickey Sumner
       马修·马希尔 Matthew Maher
       罗伯特·斯密戈尔 Robert Smigel
       艾登·梅耶里 Ayden Mayeri
       布鲁克·布鲁姆 Brooke Bloom
       玛莎·凯莉 Martha Kelly
       阿尔伯特·琼斯 Albert Jones
       汉娜·邓恩 Hannah Dunne
       桑德拉·罗斯科 Sandra Rosko
       麦金利·贝尔彻 McKinley Belcher III
       戈登·格里克 Gideon Glick
       马修·希尔 Matthew Shear
       阿米尔·塔莱 Amir Talai
       萨拉·琼斯 Sarah Jones
       文尼·希伯 Vinny Chhibber
       胡安·阿方索 Juan Alfonso
       洛蕾塔·谢诺斯基 Loretta Shenosky
       Tunde Adebimpe
       雅斯曼·塞斯·琼斯 Jasmine Cephas Jones


◎标  签 婚姻 | 家庭 | 爱情 | 美国 | 剧情 | 女性 | 2019 | Netflix

◎简  介   

  讲述了结婚多年并育有一子的戏剧导演查理和女演员妮可因工作分居而不得不走向离婚,在这场为了争夺抚养权的离婚拉锯战中,关于爱情、婚姻和家庭真实感人的细枝末节牵动人心。两人的关系又将何去何从?

◎获奖情况  

  第92届奥斯卡金像奖(2020)
  最佳影片(提名) 大卫·海曼 / 诺亚·鲍姆巴赫
  最佳男主角(提名) 亚当·德赖弗
  最佳女主角(提名) 斯嘉丽·约翰逊
  最佳女配角 劳拉·邓恩
  最佳原创剧本(提名) 诺亚·鲍姆巴赫
  最佳原创配乐(提名) 兰迪·纽曼

  第76届威尼斯电影节(2019)
  主竞赛单元 金狮奖 (提名) 诺亚·鲍姆巴赫

  第77届金球奖(2020)
  电影类 最佳剧情片(提名)
  电影类 剧情片最佳男主角(提名) 亚当·德赖弗
  电影类 剧情片最佳女主角(提名) 斯嘉丽·约翰逊
  电影类 最佳女配角 劳拉·邓恩
  电影类 最佳编剧(提名) 诺亚·鲍姆巴赫
  电影类 最佳原创配乐(提名) 兰迪·纽曼

  第73届英国电影学院奖(2020)
  电影奖 最佳男主角(提名) 亚当·德赖弗
  电影奖 最佳女主角(提名) 斯嘉丽·约翰逊
  电影奖 最佳女配角 劳拉·邓恩
  电影奖 最佳原创剧本(提名) 诺亚·鲍姆巴赫
  电影奖 最佳选角(提名)

  第44届多伦多国际电影节(2019)
  观众选择奖(提名) 诺亚·鲍姆巴赫

  第26届美国演员工会奖(2020)
  电影奖 最佳男主角(提名) 亚当·德赖弗
  电影奖 最佳女主角(提名) 斯嘉丽·约翰逊
  电影奖 最佳女配角 劳拉·邓恩

  第72届美国编剧工会奖(2020)
  电影奖 最佳原创剧本(提名) 诺亚·鲍姆巴赫

  第31届美国制片人工会奖(2020)
  最佳电影制片人奖(提名)

  第70届美国剪辑工会奖(2020)
  剧情片最佳剪辑(提名) 詹妮弗·拉梅

  第85届纽约影评人协会奖(2019)
  最佳女配角 劳拉·邓恩

  第91届美国国家评论协会奖(2019)
  年度佳片

  第25届美国评论家选择电影奖(2020)
  最佳影片(提名)
  最佳导演(提名) 诺亚·鲍姆巴赫
  最佳男主角(提名) 亚当·德赖弗
  最佳女主角(提名) 斯嘉丽·约翰逊
  最佳女配角 劳拉·邓恩
  最佳群戏(提名)
  最佳原创剧本(提名) 诺亚·鲍姆巴赫
  最佳配乐(提名)

  第35届美国独立精神奖(2020)
  最佳影片(提名)
  最佳剧本 诺亚·鲍姆巴赫
  罗伯特·奥特曼电影奖

  第22届英国独立电影奖(2019)
  最佳外国独立电影(提名)

  第29届哥谭独立电影奖(2019)
  最佳影片
  最佳男演员 亚当·德赖弗
  最佳剧本 诺亚·鲍姆巴赫

  第20届美国电影学会奖(2019)
  年度佳片

  第24届金卫星奖(2020)
  电影部门 最佳剧情片(提名)
  电影部门 最佳导演(提名) 诺亚·鲍姆巴赫
  电影部门 剧情片最佳男主角(提名) 亚当·德赖弗
  电影部门 剧情片最佳女主角 斯嘉丽·约翰逊
  电影部门 最佳女配角(提名) 劳拉·邓恩
  电影部门 最佳原创剧本 诺亚·鲍姆巴赫
  电影部门 最佳原创配乐(提名)
  电影部门 最佳剪辑(提名)

  第23届好莱坞电影奖(2019)
  年度女配角 劳拉·邓恩
  年度配乐 兰迪·纽曼

  第54届美国国家影评人协会奖(2020)
  最佳男主角(提名) 亚当·德赖弗
  最佳女配角 劳拉·邓恩

  第18届华盛顿影评人协会奖(2019)
  最佳男主角 亚当·德赖弗
  最佳原创剧本 诺亚·鲍姆巴赫

  第40届伦敦影评人协会奖(2020)
  年度电影(提名)
  年度编剧(提名) 诺亚·鲍姆巴赫
  年度男主角(提名) 亚当·德赖弗
  年度女主角(提名) 斯嘉丽·约翰逊
  年度女配角(提名) 劳拉·邓恩

  第40届波士顿影评人协会奖(2019)
  最佳女配角 劳拉·邓恩
  最佳剧本(提名) 诺亚·鲍姆巴赫

  第45届洛杉矶影评人协会奖(2019)
  最佳男主角(提名) 亚当·德赖弗
  最佳剧本 诺亚·鲍姆巴赫

  第32届芝加哥影评人协会奖(2019)
  最佳影片(提名)
  最佳导演(提名) 诺亚·鲍姆巴赫
  最佳男主角(提名) 亚当·德赖弗
  最佳女主角(提名) 斯嘉丽·约翰逊
  最佳女配角(提名) 劳拉·邓恩
  最佳原创剧本(提名) 诺亚·鲍姆巴赫
  最佳原创配乐(提名) 兰迪·纽曼

  第13届底特律影评人协会奖(2019)
  最佳男主角 亚当·德赖弗
  最佳女主角 斯嘉丽·约翰逊
  最佳女配角 劳拉·邓恩
  最佳剧本 诺亚·鲍姆巴赫

  第4届亚特兰大影评人协会奖(2019)
  十佳影片
  最佳男主角 亚当·德赖弗
  最佳女配角 劳拉·邓恩

  第23届美国在线影评人协会奖(2020)
  最佳影片(提名)
  最佳男主角 亚当·德赖弗
  最佳女主角(提名) 斯嘉丽·约翰逊
  最佳女配角(提名) 劳拉·邓恩
  最佳原创剧本(提名) 诺亚·鲍姆巴赫
  最佳原创配乐(提名) 兰迪·纽曼

  第6届豆瓣电影年度榜单(2019)
  年度冷门佳片(提名)
  评分最高的爱情片
Video
ID                                       : 1
Format                                   : AVC
Format/Info                              : Advanced Video Codec
Format settings                          : CABAC / 8 Ref Frames
Format settings, CABAC                   : Yes
Format settings, Reference frames        : 8 frames
Codec ID                                 : V_MPEG4/ISO/AVC
Duration                                 : 2 h 17 min
Bit rate                                 : 7 533 kb/s
Width                                    : 1 200 pixels
Height                                   : 720 pixels
Display aspect ratio                     : 5:3
Frame rate mode                          : Constant
Frame rate                               : 23.976 (24000/1001/189150) FPS
Color space                              : YUV
Chroma subsampling                       : 4:2:0
Bit depth                                : 8 bits
Scan type                                : Progressive
Bits/(Pixel*Frame)                       : 0.364
Stream size                              : 7.21 GiB (92%)
Writing library                          : x264 core 161 r3015 4c2aafd
Encoding settings                        : cabac=1 / ref=8 / deblock=1:-3:-3 / analyse=0x3:0x133 / me=umh / subme=9 / psy=1 / psy_rd=1.00:0.00 / mixed_ref=1 / me_range=24 / chroma_me=1 / trellis=2 / 8x8dct=1 / cqm=0 / deadzone=21,11 / fast_pskip=0 / chroma_qp_offset=-2 / threads=22 / lookahead_threads=1 / sliced_threads=0 / nr=0 / decimate=1 / interlaced=0 / bluray_compat=0 / constrained_intra=0 / bframes=3 / b_pyramid=2 / b_adapt=2 / b_bias=0 / direct=3 / weightb=1 / open_gop=0 / weightp=2 / keyint=250 / keyint_min=23 / scenecut=40 / intra_refresh=0 / rc=crf / mbtree=0 / crf=19.5 / qcomp=0.60 / qpmin=0 / qpmax=69 / qpstep=4 / ip_ratio=1.40 / pb_ratio=1.30 / aq=3:0.77
Default                                  : Yes
Forced                                   : No
Color range                              : Limited
Matrix coefficients                      : BT.709

Audio
ID                                       : 2
Format                                   : AC-3
Format/Info                              : Audio Coding 3
Commercial name                          : Dolby Digital
Codec ID                                 : A_AC3
Duration                                 : 2 h 17 min
Bit rate mode                            : Constant
Bit rate                                 : 640 kb/s
Channel(s)                               : 6 channels
Channel layout                           : L R C LFE Ls Rs
Sampling rate                            : 48.0 kHz
Frame rate                               : 31.250 FPS (1536 SPF)
Bit depth                                : 16 bits
Compression mode                         : Lossy
Stream size                              : 627 MiB (8%)
Title                                    : English
Language                                 : English
Service kind                             : Complete Main
Default                                  : Yes
Forced                                   : No

Text
ID                                       : 3
Format                                   : PGS
Muxing mode                              : zlib
Codec ID                                 : S_HDMV/PGS
Codec ID/Info                            : Picture based subtitle format used on BDs/HD-DVDs
Duration                                 : 2 h 11 min
Bit rate                                 : 86.3 kb/s
Count of elements                        : 5566
Stream size                              : 81.0 MiB (1%)
Language                                 : English
Default                                  : No
Forced                                   : No

Menu
00:00:00.000                             : en:Chapter 01
00:09:49.214                             : en:Chapter 02
00:15:44.360                             : en:Chapter 03
00:21:54.730                             : en:Chapter 04
00:32:34.452                             : en:Chapter 05
00:44:37.300                             : en:Chapter 06
00:49:17.955                             : en:Chapter 07
01:04:05.884                             : en:Chapter 08
01:13:27.987                             : en:Chapter 09
01:24:40.075                             : en:Chapter 10
01:31:15.929                             : en:Chapter 11
01:41:26.789                             : en:Chapter 12
01:47:05.919                             : en:Chapter 13
01:57:24.663                             : en:Chapter 14
02:00:09.077                             : en:Chapter 15
02:04:36.135                             : en:Chapter 16




                                                                                                                                                                                                        
                                                                                                                                                                                                                                                                                                                                                                                                                                                                                                                                                                                                                                                                                                                                                                                                                                                       aaa371c9d33071986d007b0a1934d8aa.zip (39.88 KB, 下载次数: 0)

回复

使用道具 举报

小黑屋|西西论坛

本网站所有资源来自网络,如无意中侵犯了您的权益,请发邮件至 [email protected],立即清除相关链接

GMT+8, 2020-8-11 04:59 , Processed in 0.113509 second(s), 23 queries .

Powered by Discuz! X3.2

© 2001-2013 Comsenz Inc.

快速回复 返回顶部 返回列表