西西论坛

 找回密码
 立即注册
搜索

寅次郎的故事:欢迎归来 Tora-san.Wish.You.Were.Here.2019.720p.BluRay....

[复制链接]
电影首发 发表于 2020-7-16 09:05:10 | 显示全部楼层 |阅读模式
帖子完整标题:寅次郎的故事:欢迎归来 Tora-san.Wish.You.Were.Here.2019.720p.BluRay.x264-REGRET 4.90GB




◎译  名 寅次郎的故事:欢迎归来 / Tora-san, Welcome Back! / Tora-san, Wish You Were Here / 寅次郎的故事:欢迎归来,寅桑 / 寅次郎的故事:欢迎归来,寅次郎 / 寅次郎的故事:欢迎归来,阿寅 / 男人之苦 / 男人之苦 – 寅次郎返嚟啦!(港)
◎片  名 男はつらいよ お帰り 寅さん
◎年  代 2019
◎产  地 日本
◎类  别 剧情 / 喜剧
◎语  言 日语
◎上映日期 2019-10-28(东京电影节) / 2019-12-27(日本)
◎IMDb评分  5.3/10 from 84 users
◎片  长 116分钟
◎导  演 山田洋次 Y?ji Yamada
◎编  剧 朝原雄三 Y?z? Asahara / 山田洋次 Y?ji Yamada
◎主  演 渥美清 Kiyoshi Atsumi
       倍赏千惠子 Chieko Baish?
       吉冈秀隆 Hidetaka Yoshioka
       后藤久美子 Kumiko Goto
       前田吟 Gin Maeda
       池胁千鹤 Chizuru Ikewaki
       夏木真理 Mari Natsuki
       浅丘琉璃子 Ruriko Asaoka
       美保纯 Jun Miho
       佐藤蛾次郎 Gajiro Satoh
       Tetsur? Degawa
       滨田麻里 Mari Hamada
       桥爪功 Isao Hashizume
       Tamahei Hayashiya
       北山雅康 Masayasu Kitayama
       小林稔侍 Nenji Kobayashi
       松野太纪 Taiki Matsuno
       樱田日和 Hiyori Sakurada
       笹野高史 Takashi Sasano
       竹山隆范 Takanori Takeyama
       S?tar? Tanaka
       立川志らく Shiraku Tatekawa
       富田望生 Miu Tomita


◎标  签 山田洋次 | 日本 | 寅次郎的故事 | 日本电影 | 2019 | 喜剧 | 渥美清 | 电影

◎简  介   

  该片是系列第50部作品,由新拍摄的部分与旧作名场面组合而成,主演是已经去世的渥美清,倍赏千惠子、前田吟、吉冈秀隆等共演。
Video
ID                                       : 1
Format                                   : AVC
Format/Info                              : Advanced Video Codec
Format settings                          : CABAC / 12 Ref Frames
Format settings, CABAC                   : Yes
Format settings, Reference frames        : 12 frames
Codec ID                                 : V_MPEG4/ISO/AVC
Duration                                 : 1 h 55 min
Bit rate                                 : 5 370 kb/s
Width                                    : 1 280 pixels
Height                                   : 538 pixels
Display aspect ratio                     : 2.40:1
Frame rate mode                          : Constant
Frame rate                               : 23.976 (24000/1001/189150) FPS
Color space                              : YUV
Chroma subsampling                       : 4:2:0
Bit depth                                : 8 bits
Scan type                                : Progressive
Bits/(Pixel*Frame)                       : 0.325
Stream size                              : 4.34 GiB (89%)
Writing library                          : x264 core 160 r3009 4c9b076
Encoding settings                        : cabac=1 / ref=12 / deblock=1:-3:-3 / analyse=0x3:0x133 / me=umh / subme=10 / psy=1 / psy_rd=1.00:0.15 / mixed_ref=1 / me_range=24 / chroma_me=1 / trellis=2 / 8x8dct=1 / cqm=0 / deadzone=21,11 / fast_pskip=1 / chroma_qp_offset=-3 / threads=17 / lookahead_threads=2 / sliced_threads=0 / nr=0 / decimate=1 / interlaced=0 / bluray_compat=0 / constrained_intra=0 / bframes=8 / b_pyramid=2 / b_adapt=2 / b_bias=0 / direct=3 / weightb=1 / open_gop=0 / weightp=2 / keyint=250 / keyint_min=23 / scenecut=40 / intra_refresh=0 / rc_lookahead=60 / rc=crf / mbtree=1 / crf=14.0 / qcomp=0.60 / qpmin=0 / qpmax=69 / qpstep=4 / ip_ratio=1.40 / aq=3:0.60
Language                                 : English
Default                                  : Yes
Forced                                   : No

Audio
ID                                       : 2
Format                                   : AC-3
Format/Info                              : Audio Coding 3
Commercial name                          : Dolby Digital
Codec ID                                 : A_AC3
Duration                                 : 1 h 55 min
Bit rate mode                            : Constant
Bit rate                                 : 640 kb/s
Channel(s)                               : 6 channels
Channel layout                           : L R C LFE Ls Rs
Sampling rate                            : 48.0 kHz
Frame rate                               : 31.250 FPS (1536 SPF)
Bit depth                                : 16 bits
Compression mode                         : Lossy
Stream size                              : 530 MiB (11%)
Language                                 : Japanese
Service kind                             : Complete Main
Default                                  : Yes
Forced                                   : No

Text #1
ID                                       : 3
Format                                   : UTF-8
Codec ID                                 : S_TEXT/UTF8
Codec ID/Info                            : UTF-8 Plain Text
Duration                                 : 1 h 55 min
Bit rate                                 : 49 b/s
Count of elements                        : 1548
Stream size                              : 41.6 KiB (0%)
Title                                    : English
Language                                 : English
Default                                  : Yes
Forced                                   : Yes

Text #2
ID                                       : 4
Format                                   : PGS
Muxing mode                              : zlib
Codec ID                                 : S_HDMV/PGS
Codec ID/Info                            : Picture based subtitle format used on BDs/HD-DVDs
Duration                                 : 1 h 55 min
Bit rate                                 : 21.7 kb/s
Count of elements                        : 3435
Stream size                              : 17.9 MiB (0%)
Title                                    : English
Language                                 : English
Default                                  : No
Forced                                   : No

Text #3
ID                                       : 5
Format                                   : PGS
Muxing mode                              : zlib
Codec ID                                 : S_HDMV/PGS
Codec ID/Info                            : Picture based subtitle format used on BDs/HD-DVDs
Duration                                 : 1 h 54 min
Bit rate                                 : 27.6 kb/s
Count of elements                        : 3525
Stream size                              : 22.6 MiB (0%)
Title                                    : Japanese SDH
Language                                 : Japanese
Default                                  : No
Forced                                   : No

Menu
00:00:00.000                             : en:00:00:00.000
00:08:51.740                             : en:00:08:51.740
00:18:34.113                             : en:00:18:34.113
00:30:19.276                             : en:00:30:19.276
00:41:13.137                             : en:00:41:13.137
00:50:08.088                             : en:00:50:08.088
01:04:19.230                             : en:01:04:19.230
01:17:20.302                             : en:01:17:20.302
01:28:38.104                             : en:01:28:38.104
01:41:18.489                             : en:01:41:18.489




                                                                                                                                                                                                        
                                                                                                                                                                                                                                                                                                                                                                                                                                                                                                                                                                                                                                                                                                                                                                                                                                                       22d1fa0e0406b4da97b7d4c46bd08316.zip (49.74 KB, 下载次数: 0)

回复

使用道具 举报

小黑屋|西西论坛

本网站所有资源来自网络,如无意中侵犯了您的权益,请发邮件至 [email protected],立即清除相关链接

GMT+8, 2020-8-11 06:00 , Processed in 0.105128 second(s), 23 queries .

Powered by Discuz! X3.2

© 2001-2013 Comsenz Inc.

快速回复 返回顶部 返回列表