西西论坛

 找回密码
 立即注册
搜索

天气之子 Weathering.with.You.2019.JAPANESE.1080p.BluRay.x264.DTS-HD.MA.5....

[复制链接]
电影首发 发表于 2020-5-28 22:29:28 | 显示全部楼层 |阅读模式



◎译  名 天气之子 / Child of Weather / Weather Child / Weather's Child / Weathering With You
◎片  名 天気の子
◎年  代 2019
◎产  地 日本
◎类  别 爱情 / 动画 / 奇幻
◎语  言 日语
◎上映日期 2019-07-19(日本) / 2019-11-01(中国大陆)
◎片  长 111分钟
◎导  演 新海诚 Makoto Shinkai
◎编  剧 新海诚 Makoto Shinkai
◎主  演 醍醐虎汰朗 Kotaro Daigo
       森七菜 Nana Mori
       小栗旬 Shun Oguri
       本田翼 Tsubasa Honda
       倍赏千惠子 Chieko Baish?
       吉柳咲良 Sakura Kiryu
       平泉成 Sei Hiraizumi
       梶裕贵 Y?ki Kaji
       木村良平 Ryohei Kimura
       柴田秀胜 Hidekatsu Shibata
       野泽雅子 Masako Nozawa
       花泽香菜 Kana Hanazawa
       佐仓绫音 Ayane Sakura


◎标  签 日本 | 爱情 | 青春 | 动画 | 治愈 | 2019 | 奇幻 | 神作

◎简  介  

  高一那年夏天,帆高(醍醐虎汰朗配音)离开位在离岛的家乡,独自一人来到东京,拮据的生活迫使他不得不找份工作,最后来到一间专门出版奇怪超自然刊物的出版社担任写手。不久,东京开始下起连日大雨,仿佛暗示着帆高不顺遂的未来,在这座繁忙城市里到处取材的帆高邂逅了与弟弟相依为命,不可思议的美少女阳菜(森七菜配音)。「等等就会放晴了喔。」阳菜这样告诉着帆高,不久,头顶的乌云逐渐散去,耀眼的阳光洒落街道……原来,阳菜拥有「改变天气」的奇妙能力……

◎获奖情况  

  第43届日本电影学院奖(2020)
  最佳动画片
  最佳配乐

  第47届动画安妮奖(2020)
  最佳独立动画长片(提名)
  最佳导演(提名) 新海诚
  最佳编剧(提名) 新海诚
  最佳动画效果(提名)

  第24届金卫星奖(2020)
  电影部门 最佳动画片(提名)

  第44届报知映画赏(2019)
  最佳动画
Video
ID                                       : 1
Format                                   : AVC
Format/Info                              : Advanced Video Codec
Format settings                          : CABAC / 4 Ref Frames
Format settings, CABAC                   : Yes
Format settings, Reference frames        : 4 frames
Codec ID                                 : V_MPEG4/ISO/AVC
Duration                                 : 1 h 52 min
Bit rate                                 : 11.5 Mb/s
Width                                    : 1 920 pixels
Height                                   : 1 080 pixels
Display aspect ratio                     : 16:9
Frame rate mode                          : Constant
Frame rate                               : 23.976 (24000/1001/189150) FPS
Color space                              : YUV
Chroma subsampling                       : 4:2:0
Bit depth                                : 8 bits
Scan type                                : Progressive
Bits/(Pixel*Frame)                       : 0.231
Stream size                              : 9.01 GiB (75%)
Title                                    : Weathering.with.You.2019.JAPANESE.1080p.BluRay.x264.DTS-HD.MA.5.1-FGT
Writing library                          : x264 core 148 r2795M aaa9aa8
Encoding settings                        : cabac=1 / ref=4 / deblock=1:1:1 / analyse=0x3:0x113 / me=umh / subme=8 / psy=1 / psy_rd=0.50:0.00 / mixed_ref=1 / me_range=32 / chroma_me=1 / trellis=2 / 8x8dct=1 / cqm=0 / deadzone=21,11 / fast_pskip=1 / chroma_qp_offset=-2 / threads=72 / lookahead_threads=3 / sliced_threads=0 / nr=0 / decimate=1 / interlaced=0 / bluray_compat=0 / constrained_intra=0 / bframes=3 / b_pyramid=2 / b_adapt=1 / b_bias=0 / direct=3 / weightb=1 / open_gop=0 / weightp=2 / keyint=240 / keyint_min=24 / scenecut=40 / intra_refresh=0 / rc_lookahead=50 / rc=2pass / mbtree=1 / bitrate=11500 / ratetol=1.0 / qcomp=0.60 / qpmin=0 / qpmax=69 / qpstep=4 / cplxblur=20.0 / qblur=0.5 / vbv_maxrate=31250 / vbv_bufsize=31250 / nal_hrd=none / filler=0 / ip_ratio=1.40 / aq=3:0.60
Language                                 : English
Default                                  : Yes
Forced                                   : No

Audio
ID                                       : 2
ID in the original source medium         : 4352 (0x1100)
Format                                   : DTS XLL
Format/Info                              : Digital Theater Systems
Commercial name                          : DTS-HD Master Audio
Codec ID                                 : A_DTS
Duration                                 : 1 h 52 min
Bit rate mode                            : Variable
Bit rate                                 : 3 557 kb/s
Channel(s)                               : 6 channels
Channel layout                           : C L R Ls Rs LFE
Sampling rate                            : 48.0 kHz
Frame rate                               : 93.750 FPS (512 SPF)
Bit depth                                : 24 bits
Compression mode                         : Lossless
Stream size                              : 2.79 GiB (23%)
Title                                    : Weathering.with.You.2019.JAPANESE.1080p.BluRay.x264.DTS-HD.MA.5.1-FGT
Language                                 : Japanese
Default                                  : Yes
Forced                                   : No
Original source medium                   : Blu-ray

Text #1
ID                                       : 3
Format                                   : UTF-8
Codec ID                                 : S_TEXT/UTF8
Codec ID/Info                            : UTF-8 Plain Text
Duration                                 : 1 h 51 min
Bit rate                                 : 65 b/s
Count of elements                        : 1703
Stream size                              : 53.6 KiB (0%)
Title                                    : English-SRT
Language                                 : English
Default                                  : Yes
Forced                                   : No

Text #2
ID                                       : 4
ID in the original source medium         : 4609 (0x1201)
Format                                   : PGS
Muxing mode                              : zlib
Codec ID                                 : S_HDMV/PGS
Codec ID/Info                            : Picture based subtitle format used on BDs/HD-DVDs
Duration                                 : 1 h 51 min
Bit rate                                 : 199 kb/s
Count of elements                        : 9105
Stream size                              : 158 MiB (1%)
Title                                    : English-PGS
Language                                 : English
Default                                  : No
Forced                                   : No
Original source medium                   : Blu-ray

Text #3
ID                                       : 5
ID in the original source medium         : 4608 (0x1200)
Format                                   : PGS
Muxing mode                              : zlib
Codec ID                                 : S_HDMV/PGS
Codec ID/Info                            : Picture based subtitle format used on BDs/HD-DVDs
Duration                                 : 1 h 51 min
Bit rate                                 : 231 kb/s
Count of elements                        : 9616
Stream size                              : 184 MiB (2%)
Title                                    : Japanese-PGS
Language                                 : Japanese
Default                                  : No
Forced                                   : No
Original source medium                   : Blu-ray

Text #4
ID                                       : 6
ID in the original source medium         : 4610 (0x1202)
Format                                   : PGS
Muxing mode                              : zlib
Codec ID                                 : S_HDMV/PGS
Codec ID/Info                            : Picture based subtitle format used on BDs/HD-DVDs
Duration                                 : 1 h 50 min
Bit rate                                 : 134 kb/s
Count of elements                        : 8497
Stream size                              : 107 MiB (1%)
Title                                    : Chinese-PGS
Language                                 : Chinese
Default                                  : No
Forced                                   : No
Original source medium                   : Blu-ray

Menu
00:00:00.000                             : ja:Chapter 01
00:03:52.315                             : ja:Chapter 02
00:07:13.433                             : ja:Chapter 03
00:11:51.210                             : ja:Chapter 04
00:17:27.046                             : ja:Chapter 05
00:19:46.351                             : ja:Chapter 06
00:22:25.260                             : ja:Chapter 07
00:26:08.066                             : ja:Chapter 08
00:30:07.972                             : ja:Chapter 09
00:34:27.982                             : ja:Chapter 10
00:38:29.807                             : ja:Chapter 11
00:41:36.243                             : ja:Chapter 12
00:44:05.893                             : ja:Chapter 13
00:47:58.876                             : ja:Chapter 14
00:52:11.461                             : ja:Chapter 15
00:55:55.852                             : ja:Chapter 16
00:58:46.773                             : ja:Chapter 17
01:01:42.532                             : ja:Chapter 18
01:05:18.247                             : ja:Chapter 19
01:08:55.923                             : ja:Chapter 20
01:13:52.928                             : ja:Chapter 21
01:16:58.697                             : ja:Chapter 22
01:19:57.709                             : ja:Chapter 23
01:23:15.949                             : ja:Chapter 24
01:25:48.226                             : ja:Chapter 25
01:28:51.117                             : ja:Chapter 26
01:33:02.868                             : ja:Chapter 27
01:38:33.115                             : ja:Chapter 28
01:43:29.328                             : ja:Chapter 29
01:47:40.829                             : ja:Chapter 30
01:52:12.726                             : ja:Chapter 31




                                                                                                                                                                                                        
                                                                                                                                                                                                                                                                                                                                                                                                                                                                                                                                                                                                                                                                                                                                                                                                                                                       e737e4e01308dd862fb9a22ecca6ad9c.torrent (60.42 KB, 下载次数: 0)

回复

使用道具 举报

小黑屋|西西论坛

本网站所有资源来自网络,如无意中侵犯了您的权益,请发邮件至 [email protected],立即清除相关链接

GMT+8, 2020-7-8 20:05 , Processed in 0.060398 second(s), 23 queries .

Powered by Discuz! X3.2

© 2001-2013 Comsenz Inc.

快速回复 返回顶部 返回列表