西西论坛

 找回密码
 立即注册
搜索

普罗米亚 Promare.2019.1080p.BluRay.x264-COW 13.90GB

[复制链接]
电影首发 发表于 2020-5-28 22:29:28 | 显示全部楼层 |阅读模式



◎译  名 普罗米亚 / PROMARE / 普羅米亞的火燄(港)
◎片  名 プロメア
◎年  代 2019
◎产  地 日本
◎类  别 剧情 / 动作 / 科幻 / 动画
◎语  言 日语
◎上映日期 2019-05-24(日本)
◎IMDb评分  7.2/10 from 1399 users
◎片  长 111分钟
◎导  演 今石洋之 Hiroyuki Imaishi
◎编  剧 中岛一树 Kazuki Nakashima
◎主  演 松山研一 Ken'ichi Matsuyama
       早乙女太一 Taichi Saotome
       堺雅人 Masato Sakai
       佐仓绫音 Ayane Sakura
       吉野裕行 Hiroyuki Yoshino
       稻田彻 Tetsu Inada
       新谷真弓 Mayumi Shintani
       小山力也 Rikiya Koyama
       小清水亚美 Ami Koshimizu
       楠大典 Taiten Kusunoki
       桧山修之 Nobuyuki Hiyama
       小西克幸 Katsuyuki Konishi
       柚木凉香 Ry?ka Yuzuki
       古田新太 Arata Furuta
       小林剑道 Kobayashi Kendo


◎标  签 日本 | 动画 | 动漫 | 科幻 | 热血 | 燃 | 2019 | 剧场版

◎简  介  

  世界大炎日的三十年後,變種人MadB u r n i s h四出縱火,與「高機動消防隊」上演命運之對決,意外掲發獨裁政治家的人類逃亡(滅亡)計劃。今石洋之為《新世紀福音戰士》擔任過原畫,執導的動畫長篇《天元突破》被捧為神作。螢光和粉色系的運用、艷麗的卡通渲染、電腦和手繪風格的撞擊、凌厲分鏡與機械人超炫變身等獨門招數,加上「非常燃」的人物故事對白,今石洋之是動畫界最不一樣煙火的存在。首部長片即能邀來松山研一、堺雅人聲演,不愧為年度最期待的熱血機械人大作。

◎获奖情况  

  第47届动画安妮奖(2020)
  最佳独立动画长片(提名)
Video
ID                                       : 1
Format                                   : AVC
Format/Info                              : Advanced Video Codec
Format settings                          : CABAC / 4 Ref Frames
Format settings, CABAC                   : Yes
Format settings, Reference frames        : 4 frames
Codec ID                                 : V_MPEG4/ISO/AVC
Duration                                 : 1 h 51 min
Bit rate                                 : 8 943 kb/s
Width                                    : 1 920 pixels
Height                                   : 1 080 pixels
Display aspect ratio                     : 16:9
Frame rate mode                          : Constant
Frame rate                               : 24.000 FPS
Color space                              : YUV
Chroma subsampling                       : 4:2:0
Bit depth                                : 8 bits
Scan type                                : Progressive
Bits/(Pixel*Frame)                       : 0.180
Stream size                              : 6.94 GiB (50%)
Writing library                          : x264 core 160 r3000 33f9e14
Encoding settings                        : cabac=1 / ref=4 / deblock=1:1:1 / analyse=0x3:0x133 / me=tesa / subme=11 / psy=1 / psy_rd=0.60:0.00 / mixed_ref=1 / me_range=24 / chroma_me=1 / trellis=2 / 8x8dct=1 / cqm=0 / deadzone=21,11 / fast_pskip=0 / chroma_qp_offset=-2 / threads=18 / lookahead_threads=4 / sliced_threads=0 / nr=0 / decimate=1 / interlaced=0 / bluray_compat=0 / constrained_intra=0 / bframes=10 / b_pyramid=2 / b_adapt=2 / b_bias=0 / direct=3 / weightb=1 / open_gop=0 / weightp=2 / keyint=250 / keyint_min=23 / scenecut=40 / intra_refresh=0 / rc_lookahead=60 / rc=crf / mbtree=1 / crf=15.0 / qcomp=0.60 / qpmin=0 / qpmax=51 / qpstep=4 / ip_ratio=1.40 / aq=3:0.90
Default                                  : Yes
Forced                                   : No

Audio #1
ID                                       : 2
Format                                   : DTS XLL
Format/Info                              : Digital Theater Systems
Commercial name                          : DTS-HD Master Audio
Codec ID                                 : A_DTS
Duration                                 : 1 h 51 min
Bit rate mode                            : Variable
Bit rate                                 : 4 488 kb/s
Channel(s)                               : 6 channels
Channel layout                           : C L R Ls Rs LFE
Sampling rate                            : 48.0 kHz
Frame rate                               : 93.750 FPS (512 SPF)
Bit depth                                : 24 bits
Compression mode                         : Lossless
Stream size                              : 3.48 GiB (25%)
Title                                    : Japanese
Language                                 : Japanese
Default                                  : Yes
Forced                                   : No

Audio #2
ID                                       : 3
Format                                   : DTS XLL
Format/Info                              : Digital Theater Systems
Commercial name                          : DTS-HD Master Audio
Codec ID                                 : A_DTS
Duration                                 : 1 h 51 min
Bit rate mode                            : Variable
Bit rate                                 : 4 386 kb/s
Channel(s)                               : 6 channels
Channel layout                           : C L R Ls Rs LFE
Sampling rate                            : 48.0 kHz
Frame rate                               : 93.750 FPS (512 SPF)
Bit depth                                : 24 bits
Compression mode                         : Lossless
Stream size                              : 3.40 GiB (24%)
Title                                    : English
Language                                 : English
Default                                  : No
Forced                                   : No

Text #1
ID                                       : 4
Format                                   : UTF-8
Codec ID                                 : S_TEXT/UTF8
Codec ID/Info                            : UTF-8 Plain Text
Duration                                 : 1 h 41 min
Bit rate                                 : 53 b/s
Count of elements                        : 1321
Stream size                              : 39.9 KiB (0%)
Title                                    : English.Full.SRT
Language                                 : English
Default                                  : Yes
Forced                                   : Yes

Text #2
ID                                       : 5
Format                                   : UTF-8
Codec ID                                 : S_TEXT/UTF8
Codec ID/Info                            : UTF-8 Plain Text
Duration                                 : 1 h 36 min
Bit rate                                 : 0 b/s
Count of elements                        : 18
Stream size                              : 209 Bytes (0%)
Title                                    : English.Forced.SRT
Language                                 : English
Default                                  : No
Forced                                   : No

Text #3
ID                                       : 6
Format                                   : UTF-8
Codec ID                                 : S_TEXT/UTF8
Codec ID/Info                            : UTF-8 Plain Text
Duration                                 : 1 h 42 min
Bit rate                                 : 60 b/s
Count of elements                        : 1474
Stream size                              : 45.4 KiB (0%)
Title                                    : English.Stripped.SRT
Language                                 : English
Default                                  : No
Forced                                   : No

Text #4
ID                                       : 7
Format                                   : UTF-8
Codec ID                                 : S_TEXT/UTF8
Codec ID/Info                            : UTF-8 Plain Text
Duration                                 : 1 h 45 min
Bit rate                                 : 67 b/s
Count of elements                        : 1629
Stream size                              : 52.4 KiB (0%)
Title                                    : English.SDH.SRT
Language                                 : English
Default                                  : No
Forced                                   : No

Text #5
ID                                       : 8
Format                                   : PGS
Muxing mode                              : zlib
Codec ID                                 : S_HDMV/PGS
Codec ID/Info                            : Picture based subtitle format used on BDs/HD-DVDs
Duration                                 : 1 h 43 min
Bit rate                                 : 27.1 kb/s
Count of elements                        : 2591
Stream size                              : 20.0 MiB (0%)
Title                                    : English.Full.PGS
Language                                 : English
Default                                  : No
Forced                                   : No

Text #6
ID                                       : 9
Format                                   : PGS
Muxing mode                              : zlib
Codec ID                                 : S_HDMV/PGS
Codec ID/Info                            : Picture based subtitle format used on BDs/HD-DVDs
Duration                                 : 1 h 36 min
Bit rate                                 : 235 b/s
Count of elements                        : 36
Stream size                              : 166 KiB (0%)
Title                                    : English.Forced.PGS
Language                                 : English
Default                                  : No
Forced                                   : No

Text #7
ID                                       : 10
Format                                   : PGS
Muxing mode                              : zlib
Codec ID                                 : S_HDMV/PGS
Codec ID/Info                            : Picture based subtitle format used on BDs/HD-DVDs
Duration                                 : 1 h 45 min
Bit rate                                 : 36.8 kb/s
Count of elements                        : 2143
Stream size                              : 27.9 MiB (0%)
Title                                    : English.SDH.PGS
Language                                 : English
Default                                  : No
Forced                                   : No

Text #8
ID                                       : 11
Format                                   : PGS
Muxing mode                              : zlib
Codec ID                                 : S_HDMV/PGS
Codec ID/Info                            : Picture based subtitle format used on BDs/HD-DVDs
Duration                                 : 1 h 43 min
Bit rate                                 : 23.5 kb/s
Count of elements                        : 2591
Stream size                              : 17.4 MiB (0%)
Title                                    : English.Full.Stylized.PGS
Language                                 : English
Default                                  : No
Forced                                   : No

Text #9
ID                                       : 12
Format                                   : PGS
Muxing mode                              : zlib
Codec ID                                 : S_HDMV/PGS
Codec ID/Info                            : Picture based subtitle format used on BDs/HD-DVDs
Duration                                 : 1 h 35 min
Bit rate                                 : 191 b/s
Count of elements                        : 36
Stream size                              : 134 KiB (0%)
Title                                    : English.Forced.Stylized.PGS
Language                                 : English
Default                                  : No
Forced                                   : No

Text #10
ID                                       : 13
Format                                   : PGS
Muxing mode                              : zlib
Codec ID                                 : S_HDMV/PGS
Codec ID/Info                            : Picture based subtitle format used on BDs/HD-DVDs
Duration                                 : 1 h 47 min
Bit rate                                 : 29.0 kb/s
Count of elements                        : 2599
Stream size                              : 22.4 MiB (0%)
Title                                    : French
Language                                 : French
Default                                  : No
Forced                                   : No

Text #11
ID                                       : 14
Format                                   : PGS
Muxing mode                              : zlib
Codec ID                                 : S_HDMV/PGS
Codec ID/Info                            : Picture based subtitle format used on BDs/HD-DVDs
Duration                                 : 1 h 47 min
Bit rate                                 : 28.7 kb/s
Count of elements                        : 2600
Stream size                              : 22.1 MiB (0%)
Title                                    : Spanish
Language                                 : Spanish
Default                                  : No
Forced                                   : No

Menu
00:00:00.000                             : :Chapter 01
00:04:16.250                             : :Chapter 02
00:09:23.083                             : :Chapter 03
00:15:04.958                             : :Chapter 04
00:19:49.917                             : :Chapter 05
00:24:38.750                             : :Chapter 06
00:29:37.792                             : :Chapter 07
00:35:07.292                             : :Chapter 08
00:40:26.000                             : :Chapter 09
00:44:10.500                             : :Chapter 10
00:48:59.458                             : :Chapter 11
00:55:11.125                             : :Chapter 12
01:00:28.333                             : :Chapter 13
01:04:16.542                             : :Chapter 14
01:09:30.083                             : :Chapter 15
01:15:08.000                             : :Chapter 16
01:20:26.000                             : :Chapter 17
01:25:54.292                             : :Chapter 18
01:29:26.708                             : :Chapter 19
01:35:25.708                             : :Chapter 20
01:40:11.625                             : :Chapter 21
01:45:09.000                             : :Chapter 22



                                                                                                                                                                                                        
                                                                                                                                                                                                                                                                                                                                                                                                                                                                                                                                                                                                                                                                                                                                                                                                                                                      
55dd9110721afeb655efced961f655c2.torrent (69.98 KB, 下载次数: 0)

回复

使用道具 举报

小黑屋|西西论坛

本网站所有资源来自网络,如无意中侵犯了您的权益,请发邮件至 [email protected],立即清除相关链接

GMT+8, 2020-7-8 18:59 , Processed in 0.064351 second(s), 23 queries .

Powered by Discuz! X3.2

© 2001-2013 Comsenz Inc.

快速回复 返回顶部 返回列表