西西论坛

 找回密码
 立即注册
搜索

追龍2:賊王 Chasing.the.Dragon.II.Wild.Wild.Bunch.2019.CHINESE.1080p.BluRa...

[复制链接]
电影首发 发表于 2020-5-26 01:03:55 | 显示全部楼层 |阅读模式
帖子完整标题:追龍2:賊王 Chasing.the.Dragon.II.Wild.Wild.Bunch.2019.CHINESE.1080p.BluRay.x264.DD5.1-PbK 6.21GB




◎译  名 追龙Ⅱ / Chasing the Dragon 2: Wild Wild Bunch / Chasing the Dragon Ⅱ / Chasing the Dragon Ⅱ: Master of Ransom / Master of Ransom / 贼王 / 追龙2 / 追龙2:追缉大富豪 / 追龙II:贼王
◎片  名 追龍2:賊王
◎年  代 2019
◎产  地 中国香港 / 中国大陆
◎类  别 剧情 / 动作 / 犯罪
◎语  言 粤语 / 汉语普通话
◎上映日期 2019-06-06(中国大陆)
◎IMDb评分  5.8/10 from 324 users
◎片  长 103分钟
◎导  演 王晶 Jing Wong / 关智耀 Jason Kwan Chi-Yiu
◎编  剧 王晶 Jing Wong / 吕冠南 Lui Koon Nam
◎主  演 梁家辉 Tony Leung
       古天乐 Louis Koo
       林家栋 Ka Tung Lam
       邱意浓 Sabrina Qiu
       叶相明 Xiangming Ye
       任达华 Simon Yam
       杜江 Jiang Du
       王敏德 Michael Wong
       余安安 On-on Yu
       韦家雄 Ka-Hung Wai
       陈伟雄 Phat Chan
       黄竣锋 Jason Wong
       王宝葆
       秦煌 Wong Chun


◎标  签 香港 | 犯罪 | 警匪 | 动作 | 2019 | 黑帮 | 剧情 | 悬疑

◎简  介  

  悍匪龙志强,在香港回归前,趁香港英政府不作为,而屡犯巨案,先后绑架富豪利家及雷家之长子,勒索超过二十亿元,事主怕被报复, 交赎款后都不敢报警。中国公安部极为关注,与香港警方合力,派香港警员何天卧底潜入龙志强犯罪团伙,发现他正策划绑架澳门富豪贺不凡,最终陆港警察合力勇擒龙志强,救出贺不凡。
Video
ID                                       : 1
Format                                   : AVC
Format/Info                              : Advanced Video Codec
Format settings                          : CABAC / 5 Ref Frames
Format settings, CABAC                   : Yes
Format settings, Reference frames        : 5 frames
Codec ID                                 : V_MPEG4/ISO/AVC
Duration                                 : 1 h 40 min
Bit rate                                 : 8 163 kb/s
Width                                    : 1 920 pixels
Height                                   : 804 pixels
Display aspect ratio                     : 2.40:1
Frame rate mode                          : Constant
Frame rate                               : 24.000 FPS
Color space                              : YUV
Chroma subsampling                       : 4:2:0
Bit depth                                : 8 bits
Scan type                                : Progressive
Bits/(Pixel*Frame)                       : 0.220
Stream size                              : 5.75 GiB (93%)
Writing library                          : x264 core 160 r3000+53 e3e4c3e t_mod_New [(8 & 10)1 X86_64]
Encoding settings                        : cabac=1 / ref=5 / deblock=1:-3:-3 / analyse=0x3:0x133 / me=umh / subme=10 / psy=1 / fade_compensate=0.00 / psy_rd=1.00:0.00 / mixed_ref=1 / me_range=32 / chroma_me=1 / trellis=2 / 8x8dct=1 / cqm=0 / deadzone=21,11 / fast_pskip=0 / chroma_qp_offset=-2 / threads=16 / lookahead_threads=4 / sliced_threads=0 / nr=0 / decimate=0 / interlaced=0 / bluray_compat=0 / constrained_intra=0 / fgo=0 / bframes=12 / b_pyramid=2 / b_adapt=2 / b_bias=0 / direct=3 / weightb=1 / open_gop=0 / weightp=2 / keyint=480 / keyint_min=24 / scenecut=40 / intra_refresh=0 / rc_lookahead=80 / rc=crf / mbtree=0 / crf=16.0000 / qcomp=0.60 / qpmin=0:0:0 / qpmax=69:69:69 / qpstep=4 / vbv_maxrate=62500 / vbv_bufsize=78125 / crf_max=0.0 / nal_hrd=none / filler=0 / ip_ratio=1.30 / pb_ratio=1.20 / aq=3:0.80 / aq-sensitivity=10.00 / aq-factor=1.00:1.00:1.00 / aq2=0 / aq3=0
Default                                  : Yes
Forced                                   : No
Color range                              : Limited
Color primaries                          : BT.709
Transfer characteristics                 : BT.709
Matrix coefficients                      : BT.709

Audio
ID                                       : 2
Format                                   : AC-3
Format/Info                              : Audio Coding 3
Commercial name                          : Dolby Digital
Codec ID                                 : A_AC3
Duration                                 : 1 h 40 min
Bit rate mode                            : Constant
Bit rate                                 : 640 kb/s
Channel(s)                               : 6 channels
Channel layout                           : L R C LFE Ls Rs
Sampling rate                            : 48.0 kHz
Frame rate                               : 31.250 FPS (1536 SPF)
Bit depth                                : 16 bits
Compression mode                         : Lossy
Stream size                              : 461 MiB (7%)
Title                                    : Cantonese
Language                                 : Chinese
Service kind                             : Complete Main
Default                                  : Yes
Forced                                   : No

Text #1
ID                                       : 3
Format                                   : UTF-8
Codec ID                                 : S_TEXT/UTF8
Codec ID/Info                            : UTF-8 Plain Text
Duration                                 : 1 h 34 min
Bit rate                                 : 39 b/s
Count of elements                        : 1095
Stream size                              : 27.0 KiB (0%)
Language                                 : English
Default                                  : Yes
Forced                                   : No

Text #2
ID                                       : 4
Format                                   : PGS
Muxing mode                              : zlib
Codec ID                                 : S_HDMV/PGS
Codec ID/Info                            : Picture based subtitle format used on BDs/HD-DVDs
Duration                                 : 1 h 35 min
Bit rate                                 : 25.3 kb/s
Count of elements                        : 2102
Stream size                              : 17.2 MiB (0%)
Title                                    : Traditional
Language                                 : Chinese
Default                                  : No
Forced                                   : No

Text #3
ID                                       : 5
Format                                   : PGS
Muxing mode                              : zlib
Codec ID                                 : S_HDMV/PGS
Codec ID/Info                            : Picture based subtitle format used on BDs/HD-DVDs
Duration                                 : 1 h 35 min
Bit rate                                 : 35.4 kb/s
Count of elements                        : 2102
Stream size                              : 24.1 MiB (0%)
Language                                 : English
Default                                  : No
Forced                                   : No

Menu
00:00:00.000                             : en:Chapter 1
00:09:17.375                             : en:Chapter 2
00:16:56.667                             : en:Chapter 3
00:25:04.292                             : en:Chapter 4
00:32:34.792                             : en:Chapter 5
00:44:08.667                             : en:Chapter 6
00:50:56.375                             : en:Chapter 7
00:59:33.667                             : en:Chapter 8
01:07:44.500                             : en:Chapter 9
01:17:06.292                             : en:Chapter 10
01:25:51.750                             : en:Chapter 11
01:36:32.833                             : en:Chapter 12



                                                                                                                                                                                                        
                                                                                                                                                                                                                                                                                                                                                                                                                                                                                                                                                                                                                                                                                                                                                                                                                                                       9159c7077a6decd773ce4b1141b4fe6e.torrent (31.65 KB, 下载次数: 0)

回复

使用道具 举报

小黑屋|西西论坛

本网站所有资源来自网络,如无意中侵犯了您的权益,请发邮件至 aa635343[email protected],立即清除相关链接

GMT+8, 2020-7-10 17:52 , Processed in 0.062135 second(s), 23 queries .

Powered by Discuz! X3.2

© 2001-2013 Comsenz Inc.

快速回复 返回顶部 返回列表