西西论坛

 找回密码
 立即注册
搜索

曾经是兄弟:罗比·罗伯特森与乐队 Once.Were.Brothers.Robbie.Robert... ...

[复制链接]
电影首发 发表于 2020-5-26 01:03:55 | 显示全部楼层 |阅读模式



◎译  名 曾经是兄弟:罗比·罗伯特森与乐队
◎片  名 Once Were Brothers: Robbie Robertson and The Band
◎年  代 2019
◎产  地 美国
◎类  别 纪录片
◎语  言 英语
◎上映日期 2019-09-05(多伦多电影节)
◎IMDb评分  7.2/10 from 315 users
◎片  长 100分钟
◎导  演 Daniel Roher
◎主  演 马丁·斯科塞斯 Martin Scorsese
       布鲁斯·斯普林斯汀 Bruce Springsteen
       鲍勃·迪伦 Bob Dylan
       彼特·加布埃尔 Peter Gabriel
       埃里克·克莱普顿 Eric Clapton
       大卫·格芬 David Geffen
       范·莫里森 Van Morrison
       Robbie Robertson
       Rick Dano
       Ronnie Hawkins
       Jann Wenner
       Taj Mahal
       Jimmy Vivino
       John Scheele
       Elliott Landy


◎标  签 纪录片 | 音乐 | 加拿大 | TIFF2019 | RobbieRobertson | Rock | 2019 | 2010s

◎简  介  

  It will tell the story of a group that went from backing up Bob Dylan to become one of the most influential groups of its era.
Video
ID                                       : 1
Format                                   : AVC
Format/Info                              : Advanced Video Codec
Format settings                          : CABAC / 4 Ref Frames
Format settings, CABAC                   : Yes
Format settings, Reference frames        : 4 frames
Codec ID                                 : V_MPEG4/ISO/AVC
Duration                                 : 1 h 41 min
Bit rate                                 : 12.3 Mb/s
Width                                    : 1 920 pixels
Height                                   : 1 080 pixels
Display aspect ratio                     : 16:9
Frame rate mode                          : Constant
Frame rate                               : 23.976 (24000/1001/189150) FPS
Color space                              : YUV
Chroma subsampling                       : 4:2:0
Bit depth                                : 8 bits
Scan type                                : Progressive
Bits/(Pixel*Frame)                       : 0.248
Stream size                              : 8.73 GiB (78%)
Writing library                          : x264 core 160 r3000 33f9e14
Encoding settings                        : cabac=1 / ref=4 / deblock=1:-3:-3 / analyse=0x3:0x133 / me=umh / subme=9 / psy=1 / psy_rd=1.00:0.00 / mixed_ref=1 / me_range=16 / chroma_me=1 / trellis=2 / 8x8dct=1 / cqm=0 / deadzone=21,11 / fast_pskip=0 / chroma_qp_offset=-2 / threads=16 / lookahead_threads=2 / sliced_threads=0 / nr=0 / decimate=0 / interlaced=0 / bluray_compat=0 / constrained_intra=0 / bframes=8 / b_pyramid=2 / b_adapt=2 / b_bias=0 / direct=3 / weightb=1 / open_gop=0 / weightp=2 / keyint=250 / keyint_min=23 / scenecut=40 / intra_refresh=0 / rc=crf / mbtree=0 / crf=18.2 / qcomp=0.60 / qpmin=0 / qpmax=69 / qpstep=4 / ip_ratio=1.40 / pb_ratio=1.30 / aq=3:0.80
Language                                 : English
Default                                  : Yes
Forced                                   : No
Color range                              : Limited
Matrix coefficients                      : BT.709

Audio
ID                                       : 2
Format                                   : DTS XLL
Format/Info                              : Digital Theater Systems
Commercial name                          : DTS-HD Master Audio
Codec ID                                 : A_DTS
Duration                                 : 1 h 41 min
Bit rate mode                            : Variable
Bit rate                                 : 3 474 kb/s
Channel(s)                               : 6 channels
Channel layout                           : C L R Ls Rs LFE
Sampling rate                            : 48.0 kHz
Frame rate                               : 93.750 FPS (512 SPF)
Bit depth                                : 24 bits
Compression mode                         : Lossless
Stream size                              : 2.46 GiB (22%)
Title                                    : English
Language                                 : English
Default                                  : Yes
Forced                                   : No

Text #1
ID                                       : 3
Format                                   : PGS
Muxing mode                              : zlib
Codec ID                                 : S_HDMV/PGS
Codec ID/Info                            : Picture based subtitle format used on BDs/HD-DVDs
Duration                                 : 1 h 40 min
Bit rate                                 : 97.3 kb/s
Count of elements                        : 3610
Stream size                              : 70.0 MiB (1%)
Language                                 : English
Default                                  : No
Forced                                   : No

Text #2
ID                                       : 4
Format                                   : PGS
Muxing mode                              : zlib
Codec ID                                 : S_HDMV/PGS
Codec ID/Info                            : Picture based subtitle format used on BDs/HD-DVDs
Duration                                 : 1 h 40 min
Bit rate                                 : 89.3 kb/s
Count of elements                        : 3380
Stream size                              : 64.1 MiB (1%)
Language                                 : Spanish
Default                                  : No
Forced                                   : No

Menu
00:00:00.000                             : en:Chapter 01
00:06:49.409                             : en:Chapter 02
00:16:14.265                             : en:Chapter 03
00:24:13.452                             : en:Chapter 04
00:34:40.078                             : en:Chapter 05
00:42:18.536                             : en:Chapter 06
00:50:11.008                             : en:Chapter 07
00:57:43.460                             : en:Chapter 08
01:07:13.029                             : en:Chapter 09
01:15:19.515                             : en:Chapter 10
01:29:00.335                             : en:Chapter 11
01:38:03.878                             : en:Chapter 12



                                                                                                                                                                                                        
                                                                                                                                                                                                                                                                                                                                                                                                                                                                                                                                                                                                                                                                                                                                                                                                                                                       b22b720c7dc0f287aba165a7000e9da8.torrent (57.04 KB, 下载次数: 0)

回复

使用道具 举报

小黑屋|西西论坛

本网站所有资源来自网络,如无意中侵犯了您的权益,请发邮件至 [email protected],立即清除相关链接

GMT+8, 2020-7-8 20:48 , Processed in 0.065599 second(s), 23 queries .

Powered by Discuz! X3.2

© 2001-2013 Comsenz Inc.

快速回复 返回顶部 返回列表