西西论坛

 找回密码
 立即注册
搜索

卡彭 Capone.2020.720p.BluRay.x264.DTS-FGT 5.09GB

[复制链接]
电影首发 发表于 2020-5-26 00:53:44 | 显示全部楼层 |阅读模式
-->




◎译  名 卡彭 / Fonzo / 方索
◎片  名 Capone
◎年  代 2020
◎产  地 加拿大 / 美国
◎类  别 剧情 / 传记 / 犯罪
◎语  言 英语 / 意大利语
◎上映日期 2020-05-12(美国)
◎IMDb评分  4.9/10 from 5551 users
◎  https://www.imdb.com/title/tt6199572
◎豆瓣评分 4.9/10 from 1086 users
◎ 
◎片  长 103分钟
◎导  演 乔什·特兰克 Josh Trank
◎编  剧 乔什·特兰克 Josh Trank
◎主  演 汤姆·哈迪 Tom Hardy
       琳达·卡德里尼 Linda Cardellini
       马特·狄龙 Matt Dillon
       凯尔·麦克拉克伦 Kyle MacLachlan
       杰克·劳登 Jack Lowden
       诺尔·费舍 Noel Fisher
       吉诺·卡法雷利 Gino Cafarelli
       阿尔·萨皮恩扎 Al Sapienza
       凯瑟琳·纳杜奇 Kathrine Narducci
       埃德加·阿雷拉 Edgar Arreola
       韦恩·佩雷 Wayne Pére
       梅森·古乔内 Mason Guccione
       佩蒂·布林德利 Patti Brindley
       大卫·瓦克斯 David Wachs
       乔恩·亚瑟 Jon Arthur
       朱莉娅·霍特 Julia Holt
       Sue-Lynn Ansari
       Tilda Del Toro
       Jhemma Ziegler
       Rebecca Chulew


◎标  签 汤姆·哈迪 | 传记 | 犯罪 | 黑帮 | 美国 | TomHardy | 汤姆哈迪 | 美国电影

◎简  介  

  聚焦美国“暴徒时代”黑手党头目艾尔·卡彭。故事从这位经历了十多年牢狱生涯、已经47岁的黑手党教父讲起,此时的艾尔·卡彭饱受老年痴呆症困扰。
Video
ID                                       : 1
Format                                   : AVC
Format/Info                              : Advanced Video Codec
Format profile                           : [email protected]
Format settings                          : CABAC / 4 Ref Frames
Format settings, CABAC                   : Yes
Format settings, Reference frames        : 4 frames
Codec ID                                 : V_MPEG4/ISO/AVC
Duration                                 : 1 h 43 min
Bit rate                                 : 5 500 kb/s
Width                                    : 1 280 pixels
Height                                   : 534 pixels
Display aspect ratio                     : 2.40:1
Original display aspect ratio            : 2.40:1
Frame rate mode                          : Constant
Frame rate                               : 23.976 (24000/1001/189150) FPS
Color space                              : YUV
Chroma subsampling                       : 4:2:0
Bit depth                                : 8 bits
Scan type                                : Progressive
Bits/(Pixel*Frame)                       : 0.336
Stream size                              : 3.99 GiB (78%)
Title                                    : Capone.2020.720p.BluRay.x264.DTS-FGT
Writing library                          : x264 core 148 r2748 97eaef2
Encoding settings                        : cabac=1 / ref=4 / deblock=1:-2:-2 / analyse=0x3:0x113 / me=umh / subme=9 / psy=1 / psy_rd=1.00:0.15 / mixed_ref=1 / me_range=16 / chroma_me=1 / trellis=2 / 8x8dct=1 / cqm=0 / deadzone=21,11 / fast_pskip=1 / chroma_qp_offset=-3 / threads=72 / lookahead_threads=3 / sliced_threads=0 / nr=0 / decimate=1 / interlaced=0 / bluray_compat=0 / constrained_intra=0 / bframes=3 / b_pyramid=2 / b_adapt=1 / b_bias=0 / direct=3 / weightb=1 / open_gop=0 / weightp=2 / keyint=250 / keyint_min=25 / scenecut=40 / intra_refresh=0 / rc_lookahead=50 / rc=2pass / mbtree=1 / bitrate=5500 / ratetol=1.0 / qcomp=0.60 / qpmin=0 / qpmax=69 / qpstep=4 / cplxblur=20.0 / qblur=0.5 / vbv_maxrate=31250 / vbv_bufsize=31250 / nal_hrd=none / filler=0 / ip_ratio=1.40 / aq=1:1.00
Language                                 : English
Default                                  : Yes
Forced                                   : No

Audio
ID                                       : 2
Format                                   : DTS
Format/Info                              : Digital Theater Systems
Codec ID                                 : A_DTS
Duration                                 : 1 h 43 min
Bit rate mode                            : Constant
Bit rate                                 : 1 509 kb/s
Channel(s)                               : 6 channels
Channel layout                           : C L R Ls Rs LFE
Sampling rate                            : 48.0 kHz
Frame rate                               : 93.750 FPS (512 SPF)
Bit depth                                : 16 bits
Compression mode                         : Lossy
Stream size                              : 1.09 GiB (22%)
Title                                    : Capone.2020.720p.BluRay.x264.DTS-FGT
Language                                 : English
Default                                  : Yes
Forced                                   : No

Text
ID                                       : 3
Format                                   : UTF-8
Codec ID                                 : S_TEXT/UTF8
Codec ID/Info                            : UTF-8 Plain Text
Duration                                 : 1 h 32 min
Bit rate                                 : 40 b/s
Count of elements                        : 993
Stream size                              : 27.6 KiB (0%)
Language                                 : English
Default                                  : Yes
Forced                                   : No

Menu
00:00:00.000                             : en:Chapter 01
00:12:44.054                             : en:Chapter 02
00:31:39.564                             : en:Chapter 03
00:55:52.515                             : en:Chapter 04
01:17:14.129                             : en:Chapter 05
01:32:59.031                             : en:Chapter 06



                                                                                                                                                                                                        
                                                                                                                                                                                                                                                                                                                                                                                                                                                                                                                                                                                                                                                                                                                                                                                                                                                        
70398123af5968e59192969ef062f117.torrent (25.94 KB, 下载次数: 0)

回复

使用道具 举报

小黑屋|西西论坛

本网站所有资源来自网络,如无意中侵犯了您的权益,请发邮件至 [email protected],立即清除相关链接

GMT+8, 2020-7-10 18:00 , Processed in 0.062755 second(s), 23 queries .

Powered by Discuz! X3.2

© 2001-2013 Comsenz Inc.

快速回复 返回顶部 返回列表