西西论坛

 找回密码
 立即注册
搜索

夺命公寓/危险邻居 1BR.2019.720p.BluRay.x264-WUTANG 3.37GB

[复制链接]
电影首发 发表于 2020-5-26 00:53:44 | 显示全部楼层 |阅读模式
-->




◎译  名 夺命公寓 / 危险邻居
◎片  名 1BR
◎年  代 2019
◎产  地 美国
◎类  别 惊悚 / 恐怖
◎语  言 英语
◎上映日期 2019-07-18(加拿大奇幻影展)
◎IMDb评分  5.8/10 from 1206 users
◎  https://www.imdb.com/title/tt7541106
◎豆瓣评分 6.1/10 from 387 users
◎ 
◎片  长 90分钟
◎导  演 David Marmor
◎编  剧 David Marmor
◎主  演 基尔斯·马特蒂 Giles Matthey
       艾伦·布卢门菲尔德 Alan Blumenfeld
       泰勒·尼科斯 Taylor Nichols


◎标  签 惊悚 | 恐怖 | 美国 | 邪教 | 美国电影 | 2019 | 剧情 | 电影

◎简  介  

  在留下了痛苦的过去之后,莎拉搬入新公寓中生活,原本以为可亲的邻居却隐藏着可怕的秘密。
Video
ID                                       : 1
Format                                   : AVC
Format/Info                              : Advanced Video Codec
Format profile                           : [email protected]
Format settings                          : CABAC / 12 Ref Frames
Format settings, CABAC                   : Yes
Format settings, Reference frames        : 12 frames
Codec ID                                 : V_MPEG4/ISO/AVC
Duration                                 : 1 h 30 min
Bit rate                                 : 4 701 kb/s
Width                                    : 1 280 pixels
Height                                   : 536 pixels
Display aspect ratio                     : 2.40:1
Frame rate mode                          : Constant
Frame rate                               : 23.976 (24000/1001/189150) FPS
Color space                              : YUV
Chroma subsampling                       : 4:2:0
Bit depth                                : 8 bits
Scan type                                : Progressive
Bits/(Pixel*Frame)                       : 0.286
Stream size                              : 2.96 GiB (88%)
Writing library                          : x264 core 160 r3000 33f9e14
Encoding settings                        : cabac=1 / ref=12 / deblock=1:-3:-3 / analyse=0x3:0x133 / me=umh / subme=10 / psy=1 / psy_rd=1.00:0.00 / mixed_ref=1 / me_range=32 / chroma_me=1 / trellis=2 / 8x8dct=1 / cqm=0 / deadzone=21,11 / fast_pskip=0 / chroma_qp_offset=-2 / threads=12 / lookahead_threads=2 / sliced_threads=0 / nr=0 / decimate=0 / interlaced=0 / bluray_compat=0 / constrained_intra=0 / bframes=8 / b_pyramid=2 / b_adapt=2 / b_bias=0 / direct=3 / weightb=1 / open_gop=0 / weightp=2 / keyint=250 / keyint_min=23 / scenecut=40 / intra_refresh=0 / rc=crf / mbtree=0 / crf=18.0 / qcomp=0.60 / qpmin=0 / qpmax=69 / qpstep=4 / ip_ratio=1.35 / pb_ratio=1.25 / aq=3:0.85
Language                                 : English
Default                                  : Yes
Forced                                   : No

Audio
ID                                       : 2
Format                                   : AC-3
Format/Info                              : Audio Coding 3
Commercial name                          : Dolby Digital
Codec ID                                 : A_AC3
Duration                                 : 1 h 30 min
Bit rate mode                            : Constant
Bit rate                                 : 640 kb/s
Channel(s)                               : 6 channels
Channel layout                           : L R C LFE Ls Rs
Sampling rate                            : 48.0 kHz
Frame rate                               : 31.250 FPS (1536 SPF)
Bit depth                                : 16 bits
Compression mode                         : Lossy
Stream size                              : 413 MiB (12%)
Title                                    : English
Language                                 : English
Service kind                             : Complete Main
Default                                  : Yes
Forced                                   : No

Text
ID                                       : 3
Format                                   : PGS
Muxing mode                              : zlib
Codec ID                                 : S_HDMV/PGS
Codec ID/Info                            : Picture based subtitle format used on BDs/HD-DVDs
Duration                                 : 1 h 27 min
Bit rate                                 : 35.7 kb/s
Count of elements                        : 2560
Stream size                              : 22.3 MiB (1%)
Language                                 : English
Default                                  : No
Forced                                   : No

Menu
00:00:00.000                             : en:Chapter 01
00:04:40.739                             : en:Chapter 02
00:07:42.962                             : en:Chapter 03
00:10:24.040                             : en:Chapter 04
00:13:20.550                             : en:Chapter 05
00:16:57.934                             : en:Chapter 06
00:22:37.022                             : en:Chapter 07
00:27:25.143                             : en:Chapter 08
00:34:08.213                             : en:Chapter 09
00:37:32.375                             : en:Chapter 10
00:41:21.479                             : en:Chapter 11
00:45:38.736                             : en:Chapter 12
00:50:02.791                             : en:Chapter 13
00:53:25.077                             : en:Chapter 14
00:59:17.596                             : en:Chapter 15
01:04:19.939                             : en:Chapter 16
01:09:16.110                             : en:Chapter 17
01:11:32.288                             : en:Chapter 18
01:14:18.829                             : en:Chapter 19
01:19:24.969                             : en:Chapter 20
01:24:45.080                             : en:Chapter 21



                                                                                                                                                                                                        
                                                                                                                                                                                                                                                                                                                                                                                                                                                                                                                                                                                                                                                                                                                                                                                                                                                        
ee973eb856cc2c3209889161dc010c40.torrent (34.4 KB, 下载次数: 0)

回复

使用道具 举报

小黑屋|西西论坛

本网站所有资源来自网络,如无意中侵犯了您的权益,请发邮件至 [email protected],立即清除相关链接

GMT+8, 2020-7-10 18:06 , Processed in 0.060288 second(s), 23 queries .

Powered by Discuz! X3.2

© 2001-2013 Comsenz Inc.

快速回复 返回顶部 返回列表