西西论坛

 找回密码
 立即注册
搜索

[4K-原盘] 隐形人/隐形客 The.Invisible.Man.2020.2160p.BluRay.REMUX.HEVC.DTS-HD.MA....

[复制链接]
电影首发 发表于 2020-5-22 04:15:00 | 显示全部楼层 |阅读模式
帖子完整标题:隐形人/隐形客 The.Invisible.Man.2020.2160p.BluRay.REMUX.HEVC.DTS-HD.MA.TrueHD.7.1.Atmos-FGT 73.38GB




◎译  名 隐形人 / 隐形客(港) / 隐身人
◎片  名 The Invisible Man
◎年  代 2020
◎产  地 澳大利亚 / 美国 / 加拿大 / 英国
◎类  别 科幻 / 惊悚 / 恐怖
◎语  言 英语
◎上映日期 2020-02-28(美国)
◎IMDb评分  7.2/10 from 90442 users
◎片  长 124分钟
◎导  演 雷·沃纳尔 Leigh Whannell
◎编  剧 雷·沃纳尔 Leigh Whannell / 赫伯特·乔治·威尔斯 H.G. Wells
◎主  演 伊丽莎白·莫斯 Elisabeth Moss
       奥利弗·杰森-科恩 Oliver Jackson-Cohen
       阿尔迪斯·霍吉 Aldis Hodge
       迈克尔·多曼 Michael Dorman
       斯托姆·瑞德 Storm Reid
       本尼迪克·哈迪 Benedict Hardie
       哈丽特·戴尔 Harriet Dyer
       瑞妮·林 Renee Lim
       布莱恩·米根 Brian Meegan
       薇薇安·格里尔 Vivienne Greer
       尼古拉斯·霍普 Nicholas Hope
       克利夫·威廉姆斯 Cleave Williams
       萨姆·史密斯 Sam Smith
       扎拉·迈克尔斯 Zara Michales
       纳许·埃哲顿 Nash Edgerton
       安东尼·布兰登·黄 Anthony Brandon Wong
       阿玛莉·沃德 Amali Ward
       迈克尔·诺特 Michael Knott


◎标  签 惊悚 | 悬疑 | 恐怖 | 科幻 | 美国 | 犯罪 | 2020 | 剧情

◎简  介  

  西西莉亚(伊丽莎白·莫斯 Elisabeth Moss 饰)再也想不到,曾经将自己迷得神魂颠倒的英俊男人阿德里安(奥利弗·杰森-科恩 Oliver Jackson-Cohen 饰),如今会成为噩梦的始作俑者。在和自己恋爱后没多久,阿德里安便开始对西西莉亚进行精神和肉体上的双重控制,终于,忍无可忍的西西莉亚在一天深夜用安定将阿德里安迷晕,成功的逃出了魔窟。
  之后,西西莉亚震惊的收到了阿德里安自杀的消息了,她几乎不敢相信,这个魔头真的从自己的生活中彻彻底底的消失了。西西莉亚的疑虑并不是空穴来风,在她生活的角角落落中,似乎都有一个无形的影子在窥视着她,企图触碰她。
Video #1
ID                                       : 1
ID in the original source medium         : 4113 (0x1011)
Format                                   : HEVC
Format/Info                              : High Efficiency Video Coding
HDR format                               : SMPTE ST 2094 App 4, Version 1, HDR10+ Profile B compatible
Codec ID                                 : V_MPEGH/ISO/HEVC
Duration                                 : 2 h 4 min
Bit rate                                 : 67.9 Mb/s
Width                                    : 3 840 pixels
Height                                   : 2 160 pixels
Display aspect ratio                     : 16:9
Frame rate mode                          : Constant
Frame rate                               : 23.976 (24000/1001/189150) FPS
Color space                              : YUV
Chroma subsampling                       : 4:2:0 (Type 2)
Bit depth                                : 10 bits
Bits/(Pixel*Frame)                       : 0.341
Stream size                              : 59.0 GiB (80%)
Title                                    : The.Invisible.Man.2020.2160p.BluRay.REMUX.HEVC.DTS-HD.MA.TrueHD.7.1.Atmos-FGT
Language                                 : English
Default                                  : Yes
Forced                                   : No
Color range                              : Limited
Color primaries                          : BT.2020
Transfer characteristics                 : PQ
Matrix coefficients                      : BT.2020 non-constant
Mastering display color primaries        : Display P3
Mastering display luminance              : min: 0.0001 cd/m2, max: 1000 cd/m2
Maximum Content Light Level              : 249 cd/m2
Maximum Frame-Average Light Level        : 37 cd/m2
Original source medium                   : Blu-ray

Video #2
ID                                       : 2
ID in the original source medium         : 4117 (0x1015)
Format                                   : HEVC
Format/Info                              : High Efficiency Video Coding
Format profile                           : Main 1@High
HDR format                               : SMPTE ST 2086, HDR10 compatible
Codec ID                                 : V_MPEGH/ISO/HEVC
Duration                                 : 2 h 4 min
Bit rate                                 : 7 081 kb/s
Width                                    : 1 920 pixels
Height                                   : 1 080 pixels
Display aspect ratio                     : 16:9
Frame rate mode                          : Constant
Frame rate                               : 23.976 (24000/1001/189150) FPS
Color space                              : YUV
Chroma subsampling                       : 4:2:0 (Type 2)
Bit depth                                : 10 bits
Bits/(Pixel*Frame)                       : 0.142
Stream size                              : 6.15 GiB (8%)
Title                                    : The.Invisible.Man.2020.2160p.BluRay.REMUX.HEVC.DTS-HD.MA.TrueHD.7.1.Atmos-FGT
Language                                 : English
Default                                  : No
Forced                                   : No
Color range                              : Limited
Color primaries                          : BT.2020
Transfer characteristics                 : PQ
Matrix coefficients                      : BT.2020 non-constant
Mastering display color primaries        : Display P3
Mastering display luminance              : min: 0.0001 cd/m2, max: 1000 cd/m2
Original source medium                   : Blu-ray

Audio #1
ID                                       : 3
ID in the original source medium         : 4352 (0x1100)
Format                                   : MLP FBA 16-ch
Format/Info                              : Meridian Lossless Packing FBA with 16-channel presentation
Commercial name                          : Dolby TrueHD with Dolby Atmos
Codec ID                                 : A_TRUEHD
Duration                                 : 2 h 4 min
Bit rate mode                            : Variable
Bit rate                                 : 3 050 kb/s
Maximum bit rate                         : 5 652 kb/s
Channel(s)                               : 8 channels
Channel layout                           : L R C LFE Ls Rs Lb Rb
Sampling rate                            : 48.0 kHz
Frame rate                               : 1 200.000 FPS (40 SPF)
Compression mode                         : Lossless
Stream size                              : 2.65 GiB (4%)
Title                                    : The.Invisible.Man.2020.2160p.BluRay.REMUX.HEVC.DTS-HD.MA.TrueHD.7.1.Atmos-FGT
Language                                 : English
Default                                  : Yes
Forced                                   : No
Original source medium                   : Blu-ray
Number of dynamic objects                : 11
Bed channel count                        : 1 channel
Bed channel configuration                : LFE

Audio #2
ID                                       : 4
Format                                   : DTS XLL
Format/Info                              : Digital Theater Systems
Commercial name                          : DTS-HD Master Audio
Codec ID                                 : A_DTS
Duration                                 : 2 h 4 min
Bit rate mode                            : Variable
Bit rate                                 : 3 833 kb/s
Channel(s)                               : 8 channels
Channel layout                           : C L R LFE Lb Rb Lss Rss
Sampling rate                            : 48.0 kHz
Frame rate                               : 93.750 FPS (512 SPF)
Bit depth                                : 24 bits
Compression mode                         : Lossless
Stream size                              : 3.33 GiB (5%)
Title                                    : The.Invisible.Man.2020.2160p.BluRay.REMUX.HEVC.DTS-HD.MA.TrueHD.7.1.Atmos-FGT
Language                                 : English
Default                                  : No
Forced                                   : No

Audio #3
ID                                       : 5
ID in the original source medium         : 4352 (0x1100)
Format                                   : AC-3
Format/Info                              : Audio Coding 3
Commercial name                          : Dolby Digital
Codec ID                                 : A_AC3
Duration                                 : 2 h 4 min
Bit rate mode                            : Constant
Bit rate                                 : 448 kb/s
Channel(s)                               : 6 channels
Channel layout                           : L R C LFE Ls Rs
Sampling rate                            : 48.0 kHz
Frame rate                               : 31.250 FPS (1536 SPF)
Bit depth                                : 16 bits
Compression mode                         : Lossy
Stream size                              : 399 MiB (1%)
Title                                    : The.Invisible.Man.2020.2160p.BluRay.REMUX.HEVC.DTS-HD.MA.TrueHD.7.1.Atmos-FGT
Language                                 : English
Service kind                             : Complete Main
Default                                  : No
Forced                                   : No
Original source medium                   : Blu-ray


Menu
00:00:00.000                             : en:Chapter 01
00:11:05.748                             : en:Chapter 02
00:16:08.884                             : en:Chapter 03
00:19:16.321                             : en:Chapter 04
00:25:27.609                             : en:Chapter 05
00:35:51.858                             : en:Chapter 06
00:39:50.179                             : en:Chapter 07
00:46:35.459                             : en:Chapter 08
00:52:41.783                             : en:Chapter 09
01:01:21.678                             : en:Chapter 10
01:08:59.426                             : en:Chapter 11
01:14:49.735                             : en:Chapter 12
01:19:23.925                             : en:Chapter 13
01:24:46.372                             : en:Chapter 14
01:30:25.336                             : en:Chapter 15
01:35:24.927                             : en:Chapter 16
01:39:33.300                             : en:Chapter 17
01:43:04.094                             : en:Chapter 18
01:48:54.319                             : en:Chapter 19
01:53:38.812                             : en:Chapter 20



                                                                                                                                                                                                        
                                                                                                                                                                                                                                                                                                                                                                                                                                                                                                                                                                                                                                                                                                                                                                                                                                                       64b5fba7228aaa496aee910b78dfc877.torrent (184.03 KB, 下载次数: 0)

回复

使用道具 举报

小黑屋|西西论坛

本网站所有资源来自网络,如无意中侵犯了您的权益,请发邮件至 [email protected],立即清除相关链接

GMT+8, 2020-6-4 00:00 , Processed in 0.081748 second(s), 23 queries .

Powered by Discuz! X3.2

© 2001-2013 Comsenz Inc.

快速回复 返回顶部 返回列表