西西论坛

 找回密码
 立即注册
搜索

灵偶契约2 Brahms.The.Boy.II.2020.720p.BluRay.x264-GECKOS 3.19GB

[复制链接]
帖子完整标题:灵偶契约2 Brahms.The.Boy.II.2020.720p.BluRay.x264-GECKOS 3.19GB




◎译  名 灵偶契约2 / The Boy 2
◎片  名 Brahms: The Boy II
◎年  代 2020
◎产  地 美国
◎类  别 悬疑 / 惊悚 / 恐怖
◎语  言 英语
◎上映日期 2020-02-21(美国)
◎片  长 86分钟
◎导  演 威廉·布伦特·贝尔 William Brent Bell
◎编  剧 史黛西·马妮尔 Stacey Menear
◎主  演 凯蒂·霍尔姆斯 Katie Holmes
       欧文·约曼 Owain Yeoman
       克里斯托弗·康夫瑞 Christopher Convery
       拉尔夫·伊内森 Ralph Ineson
       安贾莉·杰 Anjali Jay
       奥利弗·莱斯 Oliver Rice
       娜塔莉·穆恩 Natalie Moon
       达芙妮·霍斯金斯 Daphne Hoskins
       乔莉·柯林斯 Joely Collins
       艾莉·金 Ellie King
       乔安妮·金 Joanne Kimm
       查尔斯·贾曼 Charles Jarman


◎标  签 恐怖 | 惊悚 | 灵异 | 美国 | 2020 | 悬疑 | 电影 | 悬疑惊悚

◎简  介  

  一位母亲发现儿子身上的“怪异”行为,于是全家搬到了一座别墅居住,然而儿子却和一个人形玩偶交上了“朋友”,母亲也逐渐发现了人偶身上的邪恶秘密……
Video
ID                                       : 1
Format                                   : AVC
Format/Info                              : Advanced Video Codec
Format settings                          : CABAC / 12 Ref Frames
Format settings, CABAC                   : Yes
Format settings, Reference frames        : 12 frames
Codec ID                                 : V_MPEG4/ISO/AVC
Duration                                 : 1 h 27 min
Bit rate                                 : 4 574 kb/s
Width                                    : 1 280 pixels
Height                                   : 536 pixels
Display aspect ratio                     : 2.40:1
Frame rate mode                          : Constant
Frame rate                               : 23.976 (24000/1001/189150) FPS
Color space                              : YUV
Chroma subsampling                       : 4:2:0
Bit depth                                : 8 bits
Scan type                                : Progressive
Bits/(Pixel*Frame)                       : 0.278
Stream size                              : 2.78 GiB (87%)
Writing library                          : x264 core 160 r3000 33f9e14
Encoding settings                        : cabac=1 / ref=12 / deblock=1:-3:-3 / analyse=0x3:0x133 / me=umh / subme=10 / psy=1 / psy_rd=1.20:0.00 / mixed_ref=1 / me_range=24 / chroma_me=1 / trellis=2 / 8x8dct=1 / cqm=0 / deadzone=21,11 / fast_pskip=0 / chroma_qp_offset=-2 / threads=17 / lookahead_threads=2 / sliced_threads=0 / nr=0 / decimate=0 / interlaced=0 / bluray_compat=0 / constrained_intra=0 / bframes=8 / b_pyramid=2 / b_adapt=2 / b_bias=0 / direct=3 / weightb=1 / open_gop=0 / weightp=2 / keyint=250 / keyint_min=23 / scenecut=40 / intra_refresh=0 / rc=crf / mbtree=0 / crf=15.0 / qcomp=0.60 / qpmin=0 / qpmax=69 / qpstep=4 / ip_ratio=1.40 / pb_ratio=1.30 / aq=3:0.90
Default                                  : Yes
Forced                                   : No
Color range                              : Limited
Matrix coefficients                      : BT.709

Audio
ID                                       : 2
Format                                   : AC-3
Format/Info                              : Audio Coding 3
Commercial name                          : Dolby Digital
Codec ID                                 : A_AC3
Duration                                 : 1 h 27 min
Bit rate mode                            : Constant
Bit rate                                 : 640 kb/s
Channel(s)                               : 6 channels
Channel layout                           : L R C LFE Ls Rs
Sampling rate                            : 48.0 kHz
Frame rate                               : 31.250 FPS (1536 SPF)
Bit depth                                : 16 bits
Compression mode                         : Lossy
Stream size                              : 398 MiB (12%)
Language                                 : English
Service kind                             : Complete Main
Default                                  : Yes
Forced                                   : No

Text #1
ID                                       : 3
Format                                   : PGS
Muxing mode                              : zlib
Codec ID                                 : S_HDMV/PGS
Codec ID/Info                            : Picture based subtitle format used on BDs/HD-DVDs
Duration                                 : 1 h 18 min
Bit rate                                 : 31.6 kb/s
Count of elements                        : 1875
Stream size                              : 17.8 MiB (1%)
Language                                 : English
Default                                  : No
Forced                                   : No

Text #2
ID                                       : 4
Format                                   : PGS
Muxing mode                              : zlib
Codec ID                                 : S_HDMV/PGS
Codec ID/Info                            : Picture based subtitle format used on BDs/HD-DVDs
Duration                                 : 1 h 25 min
Bit rate                                 : 26.7 kb/s
Count of elements                        : 1864
Stream size                              : 16.3 MiB (0%)
Language                                 : French
Default                                  : No
Forced                                   : No

Text #3
ID                                       : 5
Format                                   : PGS
Muxing mode                              : zlib
Codec ID                                 : S_HDMV/PGS
Codec ID/Info                            : Picture based subtitle format used on BDs/HD-DVDs
Duration                                 : 1 h 24 min
Bit rate                                 : 24.9 kb/s
Count of elements                        : 1804
Stream size                              : 15.1 MiB (0%)
Language                                 : Spanish
Default                                  : No
Forced                                   : No

Menu
00:00:00.000                             : en:Chapter 01
00:04:12.711                             : en:Chapter 02
00:10:29.128                             : en:Chapter 03
00:15:08.991                             : en:Chapter 04
00:19:32.838                             : en:Chapter 05
00:25:38.829                             : en:Chapter 06
00:30:39.046                             : en:Chapter 07
00:34:11.174                             : en:Chapter 08
00:39:19.232                             : en:Chapter 09
00:43:00.286                             : en:Chapter 10
00:46:27.660                             : en:Chapter 11
00:48:33.828                             : en:Chapter 12
00:54:01.405                             : en:Chapter 13
00:57:54.846                             : en:Chapter 14
01:03:06.491                             : en:Chapter 15
01:08:23.099                             : en:Chapter 16
01:11:29.785                             : en:Chapter 17
01:15:45.082                             : en:Chapter 18
01:18:14.648                             : en:Chapter 19
01:20:21.442                             : en:Chapter 20



                                                                                                                                                                                                        
                                                                                                                                                                                                                                                                                                                                                                                                                                                                                                                                                                                                                                                                                                                                                                                                                                                       fefa4328c61f90eeab37a7ee3ccad171.torrent (32.66 KB, 下载次数: 0)

回复

使用道具 举报

小黑屋|西西论坛

本网站所有资源来自网络,如无意中侵犯了您的权益,请发邮件至 [email protected],立即清除相关链接

GMT+8, 2020-5-29 12:21 , Processed in 0.075596 second(s), 23 queries .

Powered by Discuz! X3.2

© 2001-2013 Comsenz Inc.

快速回复 返回顶部 返回列表