西西论坛

 找回密码
 立即注册
搜索

费雪小姐和泪之穴 Miss.Fisher.And.The.Crypt.Of.Tears.2020.720p.BluRay....

[复制链接]
帖子完整标题:费雪小姐和泪之穴 Miss.Fisher.And.The.Crypt.Of.Tears.2020.720p.BluRay.x264-PFa 2.34GB




◎译  名 费雪小姐和泪之穴 / Miss Fisher and the Crypt of Tears / 费雪小姐与泪穴 / 费雪小姐电影版
◎片  名 Miss Fisher & the Crypt of Tears
◎年  代 2020
◎产  地 澳大利亚
◎类  别 悬疑
◎语  言 英语
◎上映日期 2020-02-27(澳大利亚)
◎片  长 101分钟
◎导  演 托尼·蒂尔斯 Tony Tilse
◎编  剧 Deborah Cox
◎主  演 艾斯 戴维斯 Essie Davis
       内森·佩吉 Nathan Page
       艾什莉 康宁思 Ashleigh Cummings
       鲁伯特·彭利-琼斯 Rupert Penry-Jones
       米瑞安·玛格莱斯 Miriam Margolyes


◎标  签 澳大利亚 | 侦探 | MissFisher | 推理 | 女性 | 悬疑 | 探案 | 电影

◎简  介  

  基于Kerry Greenwood所著同名畅销书,讲述20年代私家侦探芙里妮·费雪在澳洲探案的经历。
Video
ID                                       : 1
Format                                   : AVC
Format/Info                              : Advanced Video Codec
Format settings                          : CABAC / 8 Ref Frames
Format settings, CABAC                   : Yes
Format settings, Reference frames        : 8 frames
Codec ID                                 : V_MPEG4/ISO/AVC
Duration                                 : 1 h 41 min
Bit rate                                 : 2 666 kb/s
Width                                    : 1 280 pixels
Height                                   : 640 pixels
Display aspect ratio                     : 2.000
Frame rate mode                          : Constant
Frame rate                               : 24.000 FPS
Color space                              : YUV
Chroma subsampling                       : 4:2:0
Bit depth                                : 8 bits
Scan type                                : Progressive
Bits/(Pixel*Frame)                       : 0.136
Stream size                              : 1.88 GiB (81%)
Writing library                          : x264 core 157 r2969 d4099dd
Encoding settings                        : cabac=1 / ref=8 / deblock=1:-3:-3 / analyse=0x3:0x133 / me=umh / subme=9 / psy=1 / psy_rd=1.00:0.00 / mixed_ref=1 / me_range=16 / chroma_me=1 / trellis=2 / 8x8dct=1 / cqm=0 / deadzone=21,11 / fast_pskip=1 / chroma_qp_offset=-2 / threads=12 / lookahead_threads=1 / sliced_threads=0 / nr=0 / decimate=1 / interlaced=0 / bluray_compat=0 / constrained_intra=0 / bframes=3 / b_pyramid=2 / b_adapt=2 / b_bias=0 / direct=3 / weightb=1 / open_gop=0 / weightp=2 / keyint=250 / keyint_min=24 / scenecut=40 / intra_refresh=0 / rc_lookahead=60 / rc=crf / mbtree=1 / crf=16.0 / qcomp=0.60 / qpmin=0 / qpmax=69 / qpstep=4 / ip_ratio=1.40 / aq=1:0.70
Language                                 : English
Default                                  : Yes
Forced                                   : No

Audio
ID                                       : 2
Format                                   : AC-3
Format/Info                              : Audio Coding 3
Commercial name                          : Dolby Digital
Codec ID                                 : A_AC3
Duration                                 : 1 h 41 min
Bit rate mode                            : Constant
Bit rate                                 : 640 kb/s
Channel(s)                               : 6 channels
Channel layout                           : L R C LFE Ls Rs
Sampling rate                            : 48.0 kHz
Frame rate                               : 31.250 FPS (1536 SPF)
Bit depth                                : 16 bits
Compression mode                         : Lossy
Stream size                              : 463 MiB (19%)
Service kind                             : Complete Main
Default                                  : Yes
Forced                                   : No



                                                                                                                                                                                                        
                                                                                                                                                                                                                                                                                                                                                                                                                                                                                                                                                                                                                                                                                                                                                                                                                                                       2cc1854198969fe35e6c4e481e340c94.torrent (24.07 KB, 下载次数: 0)

回复

使用道具 举报

小黑屋|西西论坛

本网站所有资源来自网络,如无意中侵犯了您的权益,请发邮件至 [email protected],立即清除相关链接

GMT+8, 2020-5-29 13:51 , Processed in 0.077200 second(s), 23 queries .

Powered by Discuz! X3.2

© 2001-2013 Comsenz Inc.

快速回复 返回顶部 返回列表