西西论坛

 找回密码
 立即注册
搜索

夜班服务员/夜班职员 The.Night.Clerk.2020.720p.BluRay.x264-EiDER 3.82GB

[复制链接]
帖子完整标题:夜班服务员/夜班职员 The.Night.Clerk.2020.720p.BluRay.x264-EiDER 3.82GB




◎译  名 夜班服务员 / 夜班职员 / 夜间接待员
◎片  名 The Night Clerk
◎年  代 2020
◎产  地 美国
◎类  别 剧情 / 犯罪
◎语  言 英语
◎上映日期 2020-02-21(美国)
◎IMDb评分  5.2/10 from 2382 users
◎片  长 90分钟
◎导  演 迈克尔·克里斯托弗 Michael Cristofer
◎编  剧 迈克尔·克里斯托弗 Michael Cristofer
◎主  演 泰伊·谢里丹 Tye Sheridan
       安娜·德·阿玛斯 Ana de Armas
       海伦·亨特 Helen Hunt
       约翰·雷吉扎莫 John Leguizamo
       乔纳森·斯卡奇 Johnathon Schaech
       雅克·格雷 Jacque Gray
       Cindy Perez
       D.L. Walker
       Walter Platz
       Pam Eichner
       Ischa Bee
       Stacey Ann Turner
       Adam Colvin


◎标  签 犯罪 | 美国 | 悬疑 | 剧情 | 2020 | 安娜·德·阿玛斯 | 美国电影 | 泰伊·谢里丹

◎简  介  

  患有自闭症的酒店夜班服务员巴特(泰伊·谢里丹饰)为提高社交能力,他利用监控纪录客人一举一动。某天一名女客人被杀害后,警方开始怀疑他。然而杀手还在行动,他既要面对警方又要找到真凶。
Video
ID                                       : 1
Format                                   : AVC
Format/Info                              : Advanced Video Codec
Format settings                          : CABAC / 8 Ref Frames
Format settings, CABAC                   : Yes
Format settings, Reference frames        : 8 frames
Codec ID                                 : V_MPEG4/ISO/AVC
Duration                                 : 1 h 30 min
Bit rate                                 : 5 418 kb/s
Width                                    : 1 280 pixels
Height                                   : 694 pixels
Display aspect ratio                     : 1.85:1
Frame rate mode                          : Constant
Frame rate                               : 23.976 (24000/1001/189150) FPS
Color space                              : YUV
Chroma subsampling                       : 4:2:0
Bit depth                                : 8 bits
Scan type                                : Progressive
Bits/(Pixel*Frame)                       : 0.254
Stream size                              : 3.41 GiB (89%)
Writing library                          : x264 core 160 r3000 33f9e14
Encoding settings                        : cabac=1 / ref=8 / deblock=1:-3:-3 / analyse=0x3:0x133 / me=umh / subme=9 / psy=1 / psy_rd=1.00:0.00 / mixed_ref=1 / me_range=16 / chroma_me=1 / trellis=2 / 8x8dct=1 / cqm=0 / deadzone=21,11 / fast_pskip=0 / chroma_qp_offset=-2 / threads=18 / lookahead_threads=1 / sliced_threads=0 / nr=0 / decimate=0 / interlaced=0 / bluray_compat=0 / constrained_intra=0 / bframes=3 / b_pyramid=2 / b_adapt=2 / b_bias=0 / direct=3 / weightb=1 / open_gop=0 / weightp=2 / keyint=250 / keyint_min=24 / scenecut=40 / intra_refresh=0 / rc=crf / mbtree=0 / crf=17.7 / qcomp=0.60 / qpmin=0 / qpmax=69 / qpstep=4 / ip_ratio=1.40 / pb_ratio=1.30 / aq=3:0.80
Default                                  : Yes
Forced                                   : No
Color range                              : Limited
Matrix coefficients                      : BT.709

Audio
ID                                       : 2
Format                                   : AC-3
Format/Info                              : Audio Coding 3
Commercial name                          : Dolby Digital
Codec ID                                 : A_AC3
Duration                                 : 1 h 30 min
Bit rate mode                            : Constant
Bit rate                                 : 640 kb/s
Channel(s)                               : 6 channels
Channel layout                           : L R C LFE Ls Rs
Sampling rate                            : 48.0 kHz
Frame rate                               : 31.250 FPS (1536 SPF)
Bit depth                                : 16 bits
Compression mode                         : Lossy
Stream size                              : 413 MiB (11%)
Title                                    : AC-3 5.1
Language                                 : English
Service kind                             : Complete Main
Default                                  : Yes
Forced                                   : No

Text
ID                                       : 3
Format                                   : PGS
Muxing mode                              : zlib
Codec ID                                 : S_HDMV/PGS
Codec ID/Info                            : Picture based subtitle format used on BDs/HD-DVDs
Duration                                 : 1 h 29 min
Bit rate                                 : 25.4 kb/s
Count of elements                        : 1538
Stream size                              : 16.2 MiB (0%)
Title                                    : English SDH
Language                                 : English
Default                                  : No
Forced                                   : No

Menu
00:00:00.000                             : en:Chapter 01
00:11:40.199                             : en:Chapter 02
00:23:18.272                             : en:Chapter 03
00:37:30.165                             : en:Chapter 04
00:50:22.102                             : en:Chapter 05
01:04:01.671                             : en:Chapter 06
01:17:13.879                             : en:Chapter 07
01:26:14.169                             : en:Chapter 08



                                                                                                                                                                                                        
                                                                                                                                                                                                                                                                                                                                                                                                                                                                                                                                                                                                                                                                                                                                                                                                                                                       8e44bddacb431e1f0ed06baeddfe5ed4.torrent (38.88 KB, 下载次数: 0)

回复

使用道具 举报

小黑屋|西西论坛

本网站所有资源来自网络,如无意中侵犯了您的权益,请发邮件至 [email protected],立即清除相关链接

GMT+8, 2020-5-29 12:30 , Processed in 0.069417 second(s), 23 queries .

Powered by Discuz! X3.2

© 2001-2013 Comsenz Inc.

快速回复 返回顶部 返回列表