西西论坛

 找回密码
 立即注册
搜索

死亡水域/死亡海域 Dead.Water.2019.720p.BluRay.x264-GETiT 2.62GB

[复制链接]
电影首发 发表于 2020-5-21 00:28:28 | 显示全部楼层 |阅读模式
帖子完整标题:死亡水域/死亡海域 Dead.Water.2019.720p.BluRay.x264-GETiT 2.62GB




◎译  名 死亡水域 / 死亡海域
◎片  名 Dead Water
◎年  代 2019
◎产  地 美国
◎类  别 惊悚
◎语  言 英语
◎上映日期 2019-07-26(加拿大)
◎IMDb评分  3.3/10 from 441 users
◎片  长 90分钟
◎导  演 Chris Helton
◎编  剧 Jason Usry
◎主  演 卡斯帕·凡·迪恩 Casper Van Dien
       贾德·尼尔森 Judd Nelson
       布莱安娜·戴维斯 Brianne Davis


◎标  签 美国 | 犯罪 | 剧情 | 2019 | 美国电影 | 惊悚 | 浪费时间 | 贾德·尼尔森

◎简  介  

  When a relaxing getaway turns deadly, a former Marine must risk his life once again to save his wife and best friend from a modern day pirate; all the while trying to hold himself together as he faces the ghosts of the war he left behind.
Video
ID                                       : 1
Format                                   : AVC
Format/Info                              : Advanced Video Codec
Format settings                          : CABAC / 8 Ref Frames
Format settings, CABAC                   : Yes
Format settings, Reference frames        : 8 frames
Codec ID                                 : V_MPEG4/ISO/AVC
Duration                                 : 1 h 29 min
Bit rate                                 : 3 554 kb/s
Width                                    : 1 280 pixels
Height                                   : 536 pixels
Display aspect ratio                     : 2.40:1
Frame rate mode                          : Constant
Frame rate                               : 23.976 (24000/1001/189150) FPS
Color space                              : YUV
Chroma subsampling                       : 4:2:0
Bit depth                                : 8 bits
Scan type                                : Progressive
Bits/(Pixel*Frame)                       : 0.216
Stream size                              : 2.22 GiB (85%)
Writing library                          : x264 core 160 r3000 33f9e14
Encoding settings                        : cabac=1 / ref=8 / deblock=1:-3:-3 / analyse=0x3:0x133 / me=umh / subme=9 / psy=1 / psy_rd=1.00:0.00 / mixed_ref=1 / me_range=16 / chroma_me=1 / trellis=2 / 8x8dct=1 / cqm=0 / deadzone=21,11 / fast_pskip=0 / chroma_qp_offset=-2 / threads=17 / lookahead_threads=1 / sliced_threads=0 / nr=0 / decimate=1 / interlaced=0 / bluray_compat=0 / constrained_intra=0 / bframes=3 / b_pyramid=2 / b_adapt=2 / b_bias=0 / direct=3 / weightb=1 / open_gop=0 / weightp=2 / keyint=240 / keyint_min=24 / scenecut=40 / intra_refresh=0 / rc_lookahead=60 / rc=crf / mbtree=1 / crf=17.0 / qcomp=0.60 / qpmin=0 / qpmax=69 / qpstep=4 / ip_ratio=1.40 / aq=1:1.00
Language                                 : English
Default                                  : Yes
Forced                                   : No

Audio
ID                                       : 2
Format                                   : AC-3
Format/Info                              : Audio Coding 3
Commercial name                          : Dolby Digital
Codec ID                                 : A_AC3
Duration                                 : 1 h 29 min
Bit rate mode                            : Constant
Bit rate                                 : 640 kb/s
Channel(s)                               : 6 channels
Channel layout                           : L R C LFE Ls Rs
Sampling rate                            : 48.0 kHz
Frame rate                               : 31.250 FPS (1536 SPF)
Bit depth                                : 16 bits
Compression mode                         : Lossy
Stream size                              : 409 MiB (15%)
Title                                    : ac3
Language                                 : German
Service kind                             : Complete Main
Default                                  : Yes
Forced                                   : No

Text
ID                                       : 3
Format                                   : VobSub
Muxing mode                              : zlib
Codec ID                                 : S_VOBSUB
Codec ID/Info                            : Picture based subtitle format used on DVDs
Duration                                 : 1 h 25 min
Bit rate                                 : 4 774 b/s
Count of elements                        : 1063
Stream size                              : 2.92 MiB (0%)
Title                                    : vob subs
Language                                 : German
Default                                  : No
Forced                                   : No



                                                                                                                                                                                                        
                                                                                                                                                                                                                                                                                                                                                                                                                                                                                                                                                                                                                                                                                                                                                                                                                                                       cd3ac11838b0dc8892c12184fa15197c.torrent (26.89 KB, 下载次数: 0)

回复

使用道具 举报

小黑屋|西西论坛

本网站所有资源来自网络,如无意中侵犯了您的权益,请发邮件至 [email protected],立即清除相关链接

GMT+8, 2020-5-29 12:48 , Processed in 0.089092 second(s), 23 queries .

Powered by Discuz! X3.2

© 2001-2013 Comsenz Inc.

快速回复 返回顶部 返回列表