西西论坛

 找回密码
 立即注册
搜索

刺猬索尼克/超音鼠大电影 Sonic.the.Hedgehog.2020.720p.BluRay.x264-G...

[复制链接]
电影首发 发表于 2020-5-21 00:28:28 | 显示全部楼层 |阅读模式
帖子完整标题:刺猬索尼克/超音鼠大电影 Sonic.the.Hedgehog.2020.720p.BluRay.x264-GECKOS 4.97GB




◎译  名 刺猬索尼克 / 超音鼠大电影(港) / 音速小子(台)
◎片  名 Sonic the Hedgehog
◎年  代 2020
◎产  地 加拿大 / 日本 / 美国
◎类  别 喜剧 / 动作 / 动画 / 冒险
◎语  言 英语
◎上映日期 2020(中国大陆) / 2020-02-14(美国)
◎IMDb评分  6.6/10 from 54920 users
◎片  长 99分钟
◎导  演 杰夫·福勒 Jeff Fowler
◎编  剧 范·罗比查乌克斯 Van Robichaux / 埃文·萨瑟 Evan Susser / 乔什·米勒 Josh Miller / Patrick Casey / 奥伦·尤济尔 Oren Uziel / 中裕司 Yuji Naka / Naoto Ohshima / Hirokazu Yasuhara
◎主  演 詹姆斯·麦斯登 James Marsden
       金·凯瑞 Jim Carrey
       本·施瓦茨 Ben Schwartz
       提卡·森普特 Tika Sumpter
       娜塔莎·罗斯韦尔 Natasha Rothwell
       亚当·佩里 Adam Pally
       李·马贾道布 Lee Majdoub
       尼尔·麦克唐纳 Neal McDonough
       汤姆·巴特勒 Tom Butler
       弗兰克·C·特纳 Frank C. Turner
       梅洛德·诺西普·尼曼 Melody Nosipho Niemann
       珊农·陈-肯特 Shannon Chan-Kent
       布拉德·凯利 Brad Kelly
       尔芬娜·卢克 Elfina Luk
       加里·切克 Gary Chalk
       迈克尔·霍根 Michael Hogan
       珍妮·克鲁蒂尔 Jeanie Cloutier
       贝利·斯科德里 Bailey Skodje
       杰夫·桑卡 Jeff Sanca
       丽莎·钱德勒 Lisa Chandler
       科琳·欧肖内希 Colleen O'Shaughnessey
       利安娜·拉普 Leanne Lapp


◎标  签 游戏改编 | 动画 | 美国 | 喜剧 | 科幻 | 2020 | 索尼克 | 游戏

◎简  介  

  改编自世嘉公司出品的风靡全球的电子游戏。电影讲述了拥有音速奔跑能力的刺猬索尼克在地球上展开新生活的故事。索尼克和他的新朋友汤姆(詹姆斯·麦斯登 饰)联手保护地球,阻止邪恶的蛋头博士(金·凯瑞 饰)统治世界的计划。这部适合全家观看的电影还邀请了迪卡·桑普特参演,本·施瓦茨为索尼克配音。
Video
ID                                       : 1
Format                                   : AVC
Format/Info                              : Advanced Video Codec
Format settings                          : CABAC / 12 Ref Frames
Format settings, CABAC                   : Yes
Format settings, Reference frames        : 12 frames
Codec ID                                 : V_MPEG4/ISO/AVC
Duration                                 : 1 h 38 min
Bit rate                                 : 5 913 kb/s
Width                                    : 1 280 pixels
Height                                   : 536 pixels
Display aspect ratio                     : 2.40:1
Frame rate mode                          : Constant
Frame rate                               : 23.976 (24000/1001/189150) FPS
Color space                              : YUV
Chroma subsampling                       : 4:2:0
Bit depth                                : 8 bits
Scan type                                : Progressive
Bits/(Pixel*Frame)                       : 0.359
Stream size                              : 4.08 GiB (82%)
Writing library                          : x264 core 160 r3000 33f9e14
Encoding settings                        : cabac=1 / ref=12 / deblock=1:-3:-3 / analyse=0x3:0x133 / me=umh / subme=10 / psy=1 / psy_rd=1.20:0.00 / mixed_ref=1 / me_range=24 / chroma_me=1 / trellis=2 / 8x8dct=1 / cqm=0 / deadzone=21,11 / fast_pskip=0 / chroma_qp_offset=-2 / threads=17 / lookahead_threads=2 / sliced_threads=0 / nr=0 / decimate=0 / interlaced=0 / bluray_compat=0 / constrained_intra=0 / bframes=8 / b_pyramid=2 / b_adapt=2 / b_bias=0 / direct=3 / weightb=1 / open_gop=0 / weightp=2 / keyint=250 / keyint_min=23 / scenecut=40 / intra_refresh=0 / rc=crf / mbtree=0 / crf=15.0 / qcomp=0.60 / qpmin=0 / qpmax=69 / qpstep=4 / ip_ratio=1.40 / pb_ratio=1.30 / aq=3:0.90
Default                                  : Yes
Forced                                   : No
Color range                              : Limited
Matrix coefficients                      : BT.709

Audio #1
ID                                       : 2
Format                                   : AC-3
Format/Info                              : Audio Coding 3
Commercial name                          : Dolby Digital
Codec ID                                 : A_AC3
Duration                                 : 1 h 38 min
Bit rate mode                            : Constant
Bit rate                                 : 640 kb/s
Channel(s)                               : 6 channels
Channel layout                           : L R C LFE Ls Rs
Sampling rate                            : 48.0 kHz
Frame rate                               : 31.250 FPS (1536 SPF)
Bit depth                                : 16 bits
Compression mode                         : Lossy
Stream size                              : 453 MiB (9%)
Language                                 : English
Service kind                             : Complete Main
Default                                  : Yes
Forced                                   : No

Audio #2
ID                                       : 3
Format                                   : AAC LC
Format/Info                              : Advanced Audio Codec Low Complexity
Codec ID                                 : A_AAC-2
Duration                                 : 1 h 38 min
Bit rate                                 : 132 kb/s
Channel(s)                               : 2 channels
Channel layout                           : L R
Sampling rate                            : 48.0 kHz
Frame rate                               : 46.875 FPS (1024 SPF)
Compression mode                         : Lossy
Delay relative to video                  : 20 ms
Stream size                              : 92.4 MiB (2%)
Title                                    : Commentary
Language                                 : English
Default                                  : No
Forced                                   : No

Text #1
ID                                       : 4
Format                                   : PGS
Muxing mode                              : zlib
Codec ID                                 : S_HDMV/PGS
Codec ID/Info                            : Picture based subtitle format used on BDs/HD-DVDs
Duration                                 : 1 h 31 min
Bit rate                                 : 45.2 kb/s
Count of elements                        : 2564
Stream size                              : 29.6 MiB (1%)
Language                                 : English
Default                                  : No
Forced                                   : No

Text #2
ID                                       : 5
Format                                   : PGS
Muxing mode                              : zlib
Codec ID                                 : S_HDMV/PGS
Codec ID/Info                            : Picture based subtitle format used on BDs/HD-DVDs
Duration                                 : 1 h 32 min
Bit rate                                 : 51.8 kb/s
Count of elements                        : 3184
Stream size                              : 34.3 MiB (1%)
Title                                    : SDH
Language                                 : English
Default                                  : No
Forced                                   : No

Text #3
ID                                       : 6
Format                                   : PGS
Muxing mode                              : zlib
Codec ID                                 : S_HDMV/PGS
Codec ID/Info                            : Picture based subtitle format used on BDs/HD-DVDs
Duration                                 : 1 h 37 min
Bit rate                                 : 36.0 kb/s
Count of elements                        : 2512
Stream size                              : 25.1 MiB (0%)
Language                                 : Danish
Default                                  : No
Forced                                   : No

Text #4
ID                                       : 7
Format                                   : PGS
Muxing mode                              : zlib
Codec ID                                 : S_HDMV/PGS
Codec ID/Info                            : Picture based subtitle format used on BDs/HD-DVDs
Duration                                 : 1 h 37 min
Bit rate                                 : 34.5 kb/s
Count of elements                        : 2466
Stream size                              : 24.1 MiB (0%)
Language                                 : Dutch
Default                                  : No
Forced                                   : No

Text #5
ID                                       : 8
Format                                   : PGS
Muxing mode                              : zlib
Codec ID                                 : S_HDMV/PGS
Codec ID/Info                            : Picture based subtitle format used on BDs/HD-DVDs
Duration                                 : 1 h 37 min
Bit rate                                 : 36.8 kb/s
Count of elements                        : 2618
Stream size                              : 25.7 MiB (1%)
Language                                 : Finnish
Default                                  : No
Forced                                   : No

Text #6
ID                                       : 9
Format                                   : PGS
Muxing mode                              : zlib
Codec ID                                 : S_HDMV/PGS
Codec ID/Info                            : Picture based subtitle format used on BDs/HD-DVDs
Duration                                 : 1 h 37 min
Bit rate                                 : 32.9 kb/s
Count of elements                        : 2468
Stream size                              : 23.0 MiB (0%)
Language                                 : French
Default                                  : No
Forced                                   : No



Menu
00:00:00.000                             : en:Chapter 01
00:03:51.857                             : en:Chapter 02
00:09:32.989                             : en:Chapter 03
00:12:45.974                             : en:Chapter 04
00:18:09.422                             : en:Chapter 05
00:22:20.339                             : en:Chapter 06
00:27:33.694                             : en:Chapter 07
00:35:09.316                             : en:Chapter 08
00:41:37.328                             : en:Chapter 09
00:51:24.623                             : en:Chapter 10
01:01:04.828                             : en:Chapter 11
01:04:38.208                             : en:Chapter 12
01:10:20.341                             : en:Chapter 13
01:18:54.021                             : en:Chapter 14
01:25:38.717                             : en:Chapter 15
01:30:27.297                             : en:Chapter 16



                                                                                                                                                                                                        
                                                                                                                                                                                                                                                                                                                                                                                                                                                                                                                                                                                                                                                                                                                                                                                                                                                       88e935ab496d6e8c9a16ad2123c6f6d4.torrent (50.38 KB, 下载次数: 0)

回复

使用道具 举报

小黑屋|西西论坛

本网站所有资源来自网络,如无意中侵犯了您的权益,请发邮件至 [email protected],立即清除相关链接

GMT+8, 2020-5-29 13:27 , Processed in 0.080435 second(s), 23 queries .

Powered by Discuz! X3.2

© 2001-2013 Comsenz Inc.

快速回复 返回顶部 返回列表