西西论坛

 找回密码
 立即注册
搜索

DC展台:死亡 DC.Showcase.Death.2019.1080p.BluRay.x264-WUTANG 943.14MB

[复制链接]
电影首发 发表于 2020-5-20 21:37:33 | 显示全部楼层 |阅读模式
帖子完整标题:DC展台:死亡 DC.Showcase.Death.2019.1080p.BluRay.x264-WUTANG 943.14MB




◎译  名 DC展台:死亡 / DC Showcase: Death
◎片  名 Death
◎年  代 2019
◎产  地 美国
◎类  别 动画 / 短片
◎语  言 英语
◎上映日期 2019-10-22(美国)
◎IMDb评分  8.1/10 from 146 users
◎片  长 19分钟
◎导  演 刘山姆 Sam Liu
◎编  剧 尼尔·盖曼 Neil Gaiman / 迈克·德林根贝格 Mike Dringenberg / J.M. DeMatteis
◎主  演 杰米·钟 Jamie Chung
       莱昂纳多·吴 Leonardo Nam
       达林·德·保罗 Darin De Paul
       基斯·斯扎拉巴基克 Keith Szarabajka
       凯瑞·华格伦 Kari Wahlgren


◎标  签 DC | 动画 | 美国 | 短片 | 动画短片 | 2019 | 死亡二姐 | 睡魔

◎简  介  

  在故事中,一位内心未解之谜的艺术家文森特遇到了一个神秘的女孩,她帮助他与自己的创作遗产相处,并最终丧命。
Video
ID                                       : 1
Format                                   : AVC
Format/Info                              : Advanced Video Codec
Format settings                          : CABAC / 4 Ref Frames
Format settings, CABAC                   : Yes
Format settings, Reference frames        : 4 frames
Codec ID                                 : V_MPEG4/ISO/AVC
Duration                                 : 19 min 8 s
Bit rate                                 : 6 431 kb/s
Width                                    : 1 920 pixels
Height                                   : 1 080 pixels
Display aspect ratio                     : 16:9
Frame rate mode                          : Constant
Frame rate                               : 23.976 (24000/1001/189150) FPS
Color space                              : YUV
Chroma subsampling                       : 4:2:0
Bit depth                                : 8 bits
Scan type                                : Progressive
Bits/(Pixel*Frame)                       : 0.129
Stream size                              : 880 MiB (93%)
Writing library                          : x264 core 160 r3000 33f9e14
Encoding settings                        : cabac=1 / ref=4 / deblock=1:1:1 / analyse=0x3:0x133 / me=umh / subme=10 / psy=1 / psy_rd=0.50:0.00 / mixed_ref=1 / me_range=32 / chroma_me=1 / trellis=2 / 8x8dct=1 / cqm=0 / deadzone=21,11 / fast_pskip=0 / chroma_qp_offset=-2 / threads=24 / lookahead_threads=6 / sliced_threads=0 / nr=0 / decimate=1 / interlaced=0 / bluray_compat=0 / constrained_intra=0 / bframes=10 / b_pyramid=2 / b_adapt=2 / b_bias=0 / direct=3 / weightb=1 / open_gop=0 / weightp=2 / keyint=250 / keyint_min=23 / scenecut=40 / intra_refresh=0 / rc=crf / mbtree=0 / crf=19.3 / qcomp=0.60 / qpmin=0 / qpmax=69 / qpstep=4 / ip_ratio=1.40 / pb_ratio=1.30 / aq=3:0.90
Default                                  : Yes
Forced                                   : No
Color range                              : Limited
Matrix coefficients                      : BT.709

Audio
ID                                       : 2
Format                                   : AC-3
Format/Info                              : Audio Coding 3
Commercial name                          : Dolby Digital
Codec ID                                 : A_AC3
Duration                                 : 19 min 8 s
Bit rate mode                            : Constant
Bit rate                                 : 384 kb/s
Channel(s)                               : 6 channels
Channel layout                           : L R C LFE Ls Rs
Sampling rate                            : 48.0 kHz
Frame rate                               : 31.250 FPS (1536 SPF)
Bit depth                                : 16 bits
Compression mode                         : Lossy
Stream size                              : 52.6 MiB (6%)
Title                                    : English
Language                                 : English
Service kind                             : Complete Main
Default                                  : Yes
Forced                                   : No

Text #1
ID                                       : 3
Format                                   : PGS
Muxing mode                              : zlib
Codec ID                                 : S_HDMV/PGS
Codec ID/Info                            : Picture based subtitle format used on BDs/HD-DVDs
Duration                                 : 16 min 31 s
Bit rate                                 : 28.7 kb/s
Count of elements                        : 418
Stream size                              : 3.40 MiB (0%)
Language                                 : English
Default                                  : No
Forced                                   : No

Text #2
ID                                       : 4
Format                                   : PGS
Muxing mode                              : zlib
Codec ID                                 : S_HDMV/PGS
Codec ID/Info                            : Picture based subtitle format used on BDs/HD-DVDs
Duration                                 : 16 min 31 s
Bit rate                                 : 32.3 kb/s
Count of elements                        : 418
Stream size                              : 3.82 MiB (0%)
Language                                 : German
Default                                  : No
Forced                                   : No

Text #3
ID                                       : 5
Format                                   : PGS
Muxing mode                              : zlib
Codec ID                                 : S_HDMV/PGS
Codec ID/Info                            : Picture based subtitle format used on BDs/HD-DVDs
Duration                                 : 16 min 31 s
Bit rate                                 : 25.7 kb/s
Count of elements                        : 368
Stream size                              : 3.04 MiB (0%)
Language                                 : Spanish
Default                                  : No
Forced                                   : No

Text #4
ID                                       : 6
Format                                   : PGS
Muxing mode                              : zlib
Codec ID                                 : S_HDMV/PGS
Codec ID/Info                            : Picture based subtitle format used on BDs/HD-DVDs
Duration                                 : 17 min 52 s
Bit rate                                 : 23.2 kb/s
Count of elements                        : 372
Stream size                              : 2.97 MiB (0%)
Language                                 : French
Default                                  : No
Forced                                   : No

Text #5
ID                                       : 7
Format                                   : PGS
Muxing mode                              : zlib
Codec ID                                 : S_HDMV/PGS
Codec ID/Info                            : Picture based subtitle format used on BDs/HD-DVDs
Duration                                 : 16 min 32 s
Bit rate                                 : 20.9 kb/s
Count of elements                        : 364
Stream size                              : 2.48 MiB (0%)
Language                                 : Japanese
Default                                  : No
Forced                                   : No

Text #6
ID                                       : 8
Format                                   : PGS
Muxing mode                              : zlib
Codec ID                                 : S_HDMV/PGS
Codec ID/Info                            : Picture based subtitle format used on BDs/HD-DVDs
Duration                                 : 16 min 31 s
Bit rate                                 : 24.3 kb/s
Count of elements                        : 362
Stream size                              : 2.87 MiB (0%)
Language                                 : Dutch
Default                                  : No
Forced                                   : No

Text #7
ID                                       : 9
Format                                   : PGS
Muxing mode                              : zlib
Codec ID                                 : S_HDMV/PGS
Codec ID/Info                            : Picture based subtitle format used on BDs/HD-DVDs
Duration                                 : 18 min 18 s
Bit rate                                 : 23.4 kb/s
Count of elements                        : 370
Stream size                              : 3.06 MiB (0%)
Language                                 : Danish
Default                                  : No
Forced                                   : No

Text #8
ID                                       : 10
Format                                   : PGS
Muxing mode                              : zlib
Codec ID                                 : S_HDMV/PGS
Codec ID/Info                            : Picture based subtitle format used on BDs/HD-DVDs
Duration                                 : 16 min 58 s
Bit rate                                 : 25.2 kb/s
Count of elements                        : 370
Stream size                              : 3.06 MiB (0%)
Language                                 : Finnish
Default                                  : No
Forced                                   : No

Text #9
ID                                       : 11
Format                                   : PGS
Muxing mode                              : zlib
Codec ID                                 : S_HDMV/PGS
Codec ID/Info                            : Picture based subtitle format used on BDs/HD-DVDs
Duration                                 : 16 min 31 s
Bit rate                                 : 24.5 kb/s
Count of elements                        : 368
Stream size                              : 2.89 MiB (0%)
Language                                 : Norwegian
Default                                  : No
Forced                                   : No

Text #10
ID                                       : 12
Format                                   : PGS
Muxing mode                              : zlib
Codec ID                                 : S_HDMV/PGS
Codec ID/Info                            : Picture based subtitle format used on BDs/HD-DVDs
Duration                                 : 16 min 58 s
Bit rate                                 : 25.4 kb/s
Count of elements                        : 372
Stream size                              : 3.08 MiB (0%)
Language                                 : Swedish
Default                                  : No
Forced                                   : No



                                                                                                                                                                                                        
                                                                                                                                                                                                                                                                                                                                                                                                                                                                                                                                                                                                                                                                                                                                                                                                                                                       ae4e968d7dfae47783e6b7cddf1dc1ed.torrent (19.07 KB, 下载次数: 0)

回复

使用道具 举报

小黑屋|西西论坛

本网站所有资源来自网络,如无意中侵犯了您的权益,请发邮件至 [email protected],立即清除相关链接

GMT+8, 2020-6-3 12:52 , Processed in 0.077734 second(s), 23 queries .

Powered by Discuz! X3.2

© 2001-2013 Comsenz Inc.

快速回复 返回顶部 返回列表