西西论坛

 找回密码
 立即注册
搜索

无惧之虎 Tigers.Are.Not.Afraid.2017.720p.BluRay.x264-YOL0W 3.02GB

[复制链接]
电影首发 发表于 2020-5-19 18:22:29 | 显示全部楼层 |阅读模式
帖子完整标题:无惧之虎 Tigers.Are.Not.Afraid.2017.720p.BluRay.x264-YOL0W 3.02GB




◎译  名 无惧之虎 / Tigers Are Not Afraid / 恶童无惧
◎片  名 Vuelven
◎年  代 2017
◎产  地 墨西哥
◎类  别 恐怖 / 奇幻
◎语  言 西班牙语
◎上映日期 2017-09-24(奥斯汀奇幻电影节) / 2017-11-02(墨西哥)
◎IMDb评分  7.0/10 from 3951 users
◎片  长 83分钟
◎导  演 伊萨·洛佩兹 Issa López
◎编  剧 Issa López
◎主  演 Paola Lara
       Hanssel Casillas
       Rodrigo Cortes
       Ianis Guerrero
       Tenoch Huerta
       Juan Ramón López


◎标  签 墨西哥 | 奇幻 | 恐怖 | 2017 | 惊悚 | 悬疑 | 成长 | 西班牙

◎简  介  

  某個槍聲大作的午後,小女孩艾斯德蕾雅獨自返家,不僅苦等不回相依為命的母親,還開始見到一連串的異象。在恐懼驅使下,她離開了變調的家,踏上冰冷的街頭,被迫加入少年幫派以尋求食物與庇護。然而,天下沒有白吃的午餐,她的第一個任務,就是拿著偷來的手槍,闖入豪宅去謀殺一名凶惡的毒梟爪牙??。墨西哥導演伊莎羅培茲以獨到女性視角,探討連年毒品戰爭後被忽略的兒童問題。將寫實社會背景融合魔幻鬼魅風格,精釀闇黑殘酷暴力童話,開啟毒戰題材及成長電影新頁,堪稱拉美版《蒼蠅王》。上映至今不僅爛番茄網站滿分好評居高不下,《水底情深》金獎名導吉勒摩戴托羅更欽點為個人年度十大,連恐怖小說泰斗史蒂芬金都盛讚:「才看兩分鐘,我就落入了這部電影的詛咒」。
Video
ID                                       : 1
Format                                   : AVC
Format/Info                              : Advanced Video Codec
Format settings                          : CABAC / 12 Ref Frames
Format settings, CABAC                   : Yes
Format settings, Reference frames        : 12 frames
Codec ID                                 : V_MPEG4/ISO/AVC
Duration                                 : 1 h 23 min
Bit rate                                 : 4 392 kb/s
Width                                    : 1 280 pixels
Height                                   : 536 pixels
Display aspect ratio                     : 2.40:1
Frame rate mode                          : Constant
Frame rate                               : 23.976 (24000/1001/189150) FPS
Color space                              : YUV
Chroma subsampling                       : 4:2:0
Bit depth                                : 8 bits
Scan type                                : Progressive
Bits/(Pixel*Frame)                       : 0.267
Stream size                              : 2.57 GiB (85%)
Writing library                          : x264 core 160 r3000 33f9e14
Encoding settings                        : cabac=1 / ref=12 / deblock=1:-3:-3 / analyse=0x3:0x133 / me=umh / subme=10 / psy=1 / psy_rd=1.00:0.00 / mixed_ref=1 / me_range=32 / chroma_me=1 / trellis=2 / 8x8dct=1 / cqm=0 / deadzone=21,11 / fast_pskip=0 / chroma_qp_offset=-2 / threads=16 / lookahead_threads=2 / sliced_threads=0 / nr=0 / decimate=0 / interlaced=0 / bluray_compat=0 / constrained_intra=0 / bframes=8 / b_pyramid=2 / b_adapt=2 / b_bias=0 / direct=3 / weightb=1 / open_gop=0 / weightp=2 / keyint=250 / keyint_min=23 / scenecut=40 / intra_refresh=0 / rc=crf / mbtree=0 / crf=15.0 / qcomp=0.60 / qpmin=0 / qpmax=69 / qpstep=4 / ip_ratio=1.35 / pb_ratio=1.25 / aq=3:0.85
Language                                 : English
Default                                  : Yes
Forced                                   : No

Audio #1
ID                                       : 2
Format                                   : AC-3
Format/Info                              : Audio Coding 3
Commercial name                          : Dolby Digital
Codec ID                                 : A_AC3
Duration                                 : 1 h 23 min
Bit rate mode                            : Constant
Bit rate                                 : 640 kb/s
Channel(s)                               : 6 channels
Channel layout                           : L R C LFE Ls Rs
Sampling rate                            : 48.0 kHz
Frame rate                               : 31.250 FPS (1536 SPF)
Bit depth                                : 16 bits
Compression mode                         : Lossy
Stream size                              : 384 MiB (12%)
Title                                    : Spanish
Language                                 : Spanish
Service kind                             : Complete Main
Default                                  : Yes
Forced                                   : No

Audio #2
ID                                       : 3
Format                                   : AAC LC
Format/Info                              : Advanced Audio Codec Low Complexity
Codec ID                                 : A_AAC-2
Duration                                 : 1 h 23 min
Bit rate                                 : 110 kb/s
Channel(s)                               : 2 channels
Channel layout                           : L R
Sampling rate                            : 48.0 kHz
Frame rate                               : 46.875 FPS (1024 SPF)
Compression mode                         : Lossy
Delay relative to video                  : 9 ms
Stream size                              : 66.3 MiB (2%)
Title                                    : Commentary by director Issa López
Language                                 : English
Default                                  : No
Forced                                   : No

Text #1
ID                                       : 4
Format                                   : PGS
Muxing mode                              : zlib
Codec ID                                 : S_HDMV/PGS
Codec ID/Info                            : Picture based subtitle format used on BDs/HD-DVDs
Duration                                 : 1 h 15 min
Bit rate                                 : 12.3 kb/s
Count of elements                        : 1224
Stream size                              : 6.62 MiB (0%)
Language                                 : English
Default                                  : No
Forced                                   : No

Text #2
ID                                       : 5
Format                                   : PGS
Muxing mode                              : zlib
Codec ID                                 : S_HDMV/PGS
Codec ID/Info                            : Picture based subtitle format used on BDs/HD-DVDs
Duration                                 : 1 h 15 min
Bit rate                                 : 14.3 kb/s
Count of elements                        : 1518
Stream size                              : 7.72 MiB (0%)
Language                                 : Spanish
Default                                  : No
Forced                                   : No

Text #3
ID                                       : 6
Format                                   : PGS
Muxing mode                              : zlib
Codec ID                                 : S_HDMV/PGS
Codec ID/Info                            : Picture based subtitle format used on BDs/HD-DVDs
Duration                                 : 1 h 15 min
Bit rate                                 : 13.0 kb/s
Count of elements                        : 1314
Stream size                              : 7.02 MiB (0%)
Language                                 : French
Default                                  : No
Forced                                   : No

Menu
00:00:00.000                             : en:Chapter 01
00:06:53.288                             : en:Chapter 02
00:17:40.393                             : en:Chapter 03
00:30:42.716                             : en:Chapter 04
00:41:51.968                             : en:Chapter 05
00:53:12.272                             : en:Chapter 06
01:05:20.458                             : en:Chapter 07
01:17:01.116                             : en:Chapter 08



                                                                                                                                                                                                        
                                                                                                                                                                                                                                                                                                                                                                                                                                                                                                                                                                                                                                                                                                                                                                                                                                                       784958d89074490cfd03e2014c6ceb6a.torrent (30.88 KB, 下载次数: 0)

回复

使用道具 举报

小黑屋|西西论坛

本网站所有资源来自网络,如无意中侵犯了您的权益,请发邮件至 [email protected],立即清除相关链接

GMT+8, 2020-5-29 12:35 , Processed in 0.074846 second(s), 23 queries .

Powered by Discuz! X3.2

© 2001-2013 Comsenz Inc.

快速回复 返回顶部 返回列表