西西论坛

 找回密码
 立即注册
搜索

闪虾亮晶晶 The.Shiny.Shrimps.2019.720p.BluRay.x264-GHOULS 6.58GB

[复制链接]
电影首发 发表于 2020-5-19 18:22:29 | 显示全部楼层 |阅读模式
帖子完整标题:闪虾亮晶晶 The.Shiny.Shrimps.2019.720p.BluRay.x264-GHOULS 6.58GB




◎译  名 闪虾亮晶晶 / The Shiny Shrimps / 我的教练我们的菜(台) / 闪亮的虾 / 闪爆水球队(港)
◎片  名 Les Crevettes pailletées
◎年  代 2019
◎产  地 法国
◎类  别 喜剧 / 同性
◎语  言 法语
◎上映日期 2019-05-08(法国)
◎IMDb评分  6.5/10 from 1189 users
◎片  长 100分钟
◎导  演 Maxime Govare / Cédric Le Gallo
◎编  剧 Maxime Govare / Cédric Le Gallo / Romain Choay
◎主  演 尼古拉斯·高布 Nicolas Gob
       奥尔本·勒努瓦 Alban Lenoir
       杰弗瑞·古艾 Geoffrey Cou?t
       米夏埃尔·阿比特布尔 Micha?l Abiteboul
       戴维·鲍伊特 David Ba?ot
       Yvon Back
       Thomas Croisière
       Romain Brau
       Romain Lancry
       Roland Menou
       Ma?a Quesemand
       Félix Martinez
       Pierre Samuel
       Jonathan Louis


◎标  签 喜剧 | 法国 | 同性 | 同志 | 法国电影 | 2019 | LGBT | LGBTQ

◎简  介  

  即将结束职业生涯的水球奥运冠军Matthias Le Goff决定在电视上发表恐同言论,却没想到迎来的“惩罚”是带领一支同性水球队前往克罗地亚参加LGBTQ运动比赛。
Video
ID                                       : 1
Format                                   : AVC
Format/Info                              : Advanced Video Codec
Format settings                          : CABAC / 10 Ref Frames
Format settings, CABAC                   : Yes
Format settings, Reference frames        : 10 frames
Codec ID                                 : V_MPEG4/ISO/AVC
Duration                                 : 1 h 43 min
Bit rate                                 : 8 477 kb/s
Width                                    : 1 280 pixels
Height                                   : 610 pixels
Display aspect ratio                     : 2.098
Frame rate mode                          : Constant
Frame rate                               : 24.000 FPS
Color space                              : YUV
Chroma subsampling                       : 4:2:0
Bit depth                                : 8 bits
Scan type                                : Progressive
Bits/(Pixel*Frame)                       : 0.452
Stream size                              : 6.11 GiB (93%)
Writing library                          : x264 core 160 r3000 33f9e14
Encoding settings                        : cabac=1 / ref=10 / deblock=1:-3:-3 / analyse=0x3:0x133 / me=umh / subme=10 / psy=1 / psy_rd=1.20:0.00 / mixed_ref=1 / me_range=24 / chroma_me=1 / trellis=2 / 8x8dct=1 / cqm=0 / deadzone=21,11 / fast_pskip=0 / chroma_qp_offset=-2 / threads=19 / lookahead_threads=3 / sliced_threads=0 / nr=0 / decimate=0 / interlaced=0 / bluray_compat=0 / constrained_intra=0 / bframes=8 / b_pyramid=2 / b_adapt=2 / b_bias=0 / direct=3 / weightb=1 / open_gop=0 / weightp=2 / keyint=250 / keyint_min=24 / scenecut=40 / intra_refresh=0 / rc=crf / mbtree=0 / crf=17.0 / qcomp=0.60 / qpmin=0 / qpmax=69 / qpstep=4 / ip_ratio=1.40 / pb_ratio=1.30 / aq=3:0.90
Default                                  : Yes
Forced                                   : No
Color range                              : Limited
Matrix coefficients                      : BT.709

Audio
ID                                       : 2
Format                                   : AC-3
Format/Info                              : Audio Coding 3
Commercial name                          : Dolby Digital
Codec ID                                 : A_AC3
Duration                                 : 1 h 43 min
Bit rate mode                            : Constant
Bit rate                                 : 640 kb/s
Channel(s)                               : 6 channels
Channel layout                           : L R C LFE Ls Rs
Sampling rate                            : 48.0 kHz
Frame rate                               : 31.250 FPS (1536 SPF)
Bit depth                                : 16 bits
Compression mode                         : Lossy
Stream size                              : 472 MiB (7%)
Language                                 : French
Service kind                             : Complete Main
Default                                  : Yes
Forced                                   : No

Text #1
ID                                       : 3
Format                                   : UTF-8
Codec ID                                 : S_TEXT/UTF8
Codec ID/Info                            : UTF-8 Plain Text
Duration                                 : 1 h 37 min
Bit rate                                 : 44 b/s
Count of elements                        : 1220
Stream size                              : 31.8 KiB (0%)
Title                                    : English (Forced)
Language                                 : English
Default                                  : Yes
Forced                                   : Yes

Text #2
ID                                       : 4
Format                                   : PGS
Muxing mode                              : zlib
Codec ID                                 : S_HDMV/PGS
Codec ID/Info                            : Picture based subtitle format used on BDs/HD-DVDs
Duration                                 : 1 h 37 min
Bit rate                                 : 23.8 kb/s
Count of elements                        : 2440
Stream size                              : 16.7 MiB (0%)
Language                                 : English
Default                                  : No
Forced                                   : No

Menu
00:00:00.000                             : en:Chapter 01
00:07:44.500                             : en:Chapter 02
00:17:43.792                             : en:Chapter 03
00:26:56.708                             : en:Chapter 04
00:32:52.792                             : en:Chapter 05
00:39:45.375                             : en:Chapter 06
00:49:56.917                             : en:Chapter 07
01:00:01.042                             : en:Chapter 08
01:10:07.125                             : en:Chapter 09
01:18:53.708                             : en:Chapter 10
01:26:10.208                             : en:Chapter 11
01:38:38.333                             : en:Chapter 12



                                                                                                                                                                                                        
                                                                                                                                                                                                                                                                                                                                                                                                                                                                                                                                                                                                                                                                                                                                                                                                                                                       44262cb1255b48ac2e785a0c0139cc69.torrent (33.62 KB, 下载次数: 0)

回复

使用道具 举报

小黑屋|西西论坛

本网站所有资源来自网络,如无意中侵犯了您的权益,请发邮件至 [email protected],立即清除相关链接

GMT+8, 2020-5-29 14:24 , Processed in 0.058157 second(s), 23 queries .

Powered by Discuz! X3.2

© 2001-2013 Comsenz Inc.

快速回复 返回顶部 返回列表