西西论坛

 找回密码
 立即注册
搜索

[BD-4K] 失忆十分钟/终极失忆 10.Minutes.Gone.2019.HDR.2160p.WEB.h265-WATCHER ...

[复制链接]
电影首发 发表于 2020-5-19 15:56:53 | 显示全部楼层 |阅读模式
帖子完整标题:失忆十分钟/终极失忆 10.Minutes.Gone.2019.HDR.2160p.WEB.h265-WATCHER 9.41GB




◎译  名 失忆十分钟 / 终极失忆
◎片  名 10 Minutes Gone
◎年  代 2019
◎产  地 美国
◎类  别 惊悚 / 犯罪
◎语  言 英语
◎上映日期 2019-09-27(美国)
◎IMDb评分  3.6/10 from 1918 users
◎片  长 89分钟
◎导  演 布莱恩·A·米勒 Brian A Miller
◎编  剧 Kelvin Mao / Jeff Jingle
◎主  演 迈克尔·切克利斯 Michael Chiklis
       布鲁斯·威利斯 Bruce Willis
       梅多·威廉姆斯 Meadow Williams
       凯尔·施密德 Kyle Schmid
       特夏斯·巴特尔 Texas Battle
       丽迪雅·赫尔 Lydia Hull
       斯温·特梅尔 Swen Temmel
       John D. Hickman
       Sergio Rizzuto
       Geoff Reeves
       泰勒·乔恩·奥尔森 Tyler Jon Olson
       罗曼·米蒂齐扬 Roman Mitichyan
       Franco Delgado
       Martin Blencowe
       Leslee Emmett
       Megan Neuringer
       拉拉·肯特 Lala Kent
       塔尼娅 Tanya Mityushina
       乔·吉尔希翁 Joe Gelchion
       David Danello


◎标  签 犯罪 | 美国 | 动作 | 烂片 | 2019 | 布鲁斯·威利斯 | 悬疑 | 抢劫

◎简  介  

  布鲁斯·威利斯宣布主演犯罪惊悚片《失忆十分钟》。主角由于一宗意外失控的抢劫案而丧失了部分记忆而,为了回忆起自己到底遭受了什么以及幕后真凶,他不得不寻找有关线索来将遗失在犯罪现场的记忆片段慢慢拼凑起来。
Video
ID                                       : 1
Format                                   : HEVC
Format/Info                              : High Efficiency Video Coding
HDR format                               : SMPTE ST 2094 App 4, Version 0
Codec ID                                 : V_MPEGH/ISO/HEVC
Duration                                 : 1 h 28 min
Bit rate                                 : 14.5 Mb/s
Width                                    : 3 840 pixels
Height                                   : 2 080 pixels
Display aspect ratio                     : 1.85:1
Frame rate mode                          : Constant
Frame rate                               : 23.976 (24000/1001/189150) FPS
Standard                                 : NTSC
Color space                              : YUV
Chroma subsampling                       : 4:2:0 (Type 2)
Bit depth                                : 10 bits
Bits/(Pixel*Frame)                       : 0.075
Stream size                              : 8.91 GiB (96%)
Default                                  : Yes
Forced                                   : No
Color range                              : Limited
Color primaries                          : BT.2020
Transfer characteristics                 : PQ
Matrix coefficients                      : BT.2020 non-constant
Mastering display color primaries        : Display P3
Mastering display luminance              : min: 0.0001 cd/m2, max: 1000 cd/m2
Maximum Content Light Level              : 2659 cd/m2
Maximum Frame-Average Light Level        : 404 cd/m2

Audio
ID                                       : 2
Format                                   : E-AC-3
Format/Info                              : Enhanced AC-3
Commercial name                          : Dolby Digital Plus
Codec ID                                 : A_EAC3
Duration                                 : 1 h 28 min
Bit rate mode                            : Constant
Bit rate                                 : 640 kb/s
Channel(s)                               : 6 channels
Channel layout                           : L R C LFE Ls Rs
Sampling rate                            : 48.0 kHz
Frame rate                               : 31.250 FPS (1536 SPF)
Compression mode                         : Lossy
Stream size                              : 404 MiB (4%)
Language                                 : English
Service kind                             : Complete Main
Default                                  : Yes
Forced                                   : No

Text
ID                                       : 3
Format                                   : UTF-8
Codec ID                                 : S_TEXT/UTF8
Codec ID/Info                            : UTF-8 Plain Text
Duration                                 : 1 h 26 min
Bit rate                                 : 60 b/s
Count of elements                        : 1277
Stream size                              : 38.8 KiB (0%)
Language                                 : English
Default                                  : No
Forced                                   : No

Menu
00:00:00.000                             : :1. Studio Logo
00:01:04.000                             : :2. Acknowledgement
00:01:15.000                             : :Scene 3
00:02:46.000                             : :4. Opening Credits
00:05:39.000                             : :5. Title Sequence
00:05:51.000                             : :Scene 6
00:16:30.000                             : :Scene 7
00:22:22.000                             : :Scene 8
00:31:53.000                             : :Scene 9
00:35:18.000                             : :Scene 10
00:49:04.000                             : :Scene 11
01:01:45.000                             : :Scene 12
01:08:30.000                             : :Scene 13
01:19:48.000                             : :Scene 14
01:24:09.000                             : :15. End Credits



                                                                                                                                                                                                        
                                                                                                                                                                                                                                                                                                                                                                                                                                                                                                                                                                                                                                                                                                                                                                                                                                                      
a0bdf832a765d582d5f2712409d841ff.torrent (47.76 KB, 下载次数: 0)

回复

使用道具 举报

小黑屋|西西论坛

本网站所有资源来自网络,如无意中侵犯了您的权益,请发邮件至 [email protected],立即清除相关链接

GMT+8, 2020-6-4 01:49 , Processed in 0.057605 second(s), 23 queries .

Powered by Discuz! X3.2

© 2001-2013 Comsenz Inc.

快速回复 返回顶部 返回列表