西西论坛

 找回密码
 立即注册
搜索

[BD-4K] 酷刑报告 The.Report.2019.HDR.2160p.WEB.h265-WATCHER 12.84GB

[复制链接]
电影首发 发表于 2020-5-19 15:56:53 | 显示全部楼层 |阅读模式
帖子完整标题:酷刑报告 The.Report.2019.HDR.2160p.WEB.h265-WATCHER 12.84GB




◎译  名 酷刑报告 / Ancient of Days / The Torture Report
◎片  名 The Report
◎年  代 2019
◎产  地 美国
◎类  别 剧情
◎语  言 英语
◎上映日期 2019-01-26(圣丹斯电影节) / 2019-11-15(美国)
◎IMDb评分  7.2/10 from 25017 users
◎片  长 118分钟(圣丹斯电影节)
◎导  演 斯科特·Z·本恩斯 Scott Z. Burns
◎编  剧 斯科特·Z·本恩斯 Scott Z. Burns
◎主  演 亚当·德赖弗 Adam Driver
       寇瑞·斯托尔 Corey Stoll
       小伊万德·杜克 Evander Duck Jr.
       乔恩·哈姆 Jon Hamm
       琳达·鲍威尔 Linda Powell
       安妮特·贝宁 Annette Bening
       桑德拉·兰德斯 Sandra Landers
       约翰·罗斯曼 John Rothman
       维克多·斯勒扎克 Victor Slezak
       盖伊·博伊德 Guy Boyd
       亚历山大·卓别林 Alexander Chaplin
       乔安妮·塔克 Joanne Tucker
       毛拉·蒂尔内 Maura Tierney
       迈克尔·C·豪尔 Michael C. Hall
       伊恩·布莱克曼 Ian Blackman
       多米尼克·福穆萨 Dominic Fumusa
       萨拉·古德伯格 Sarah Goldberg
       法耶尔·阿尔-凯斯 Fajer Al-Kaisi
       道格拉斯·霍奇斯 Douglas Hodges
       卡洛斯·戈麦斯 Carlos Gómez
       肖恩·杜根 Sean Dugan
       蒂姆·布雷克·尼尔森 Tim Blake Nelson
       普·班德赫 Pun Bandhu
       本·麦肯锡 Ben McKenzie
       杰克·西尔伯曼 Jake Silbermann
       泰德·拉文 Ted Levine
       斯科特· 谢泼德 Scott Shepherd
       朱莉娅·穆尼 Julia K. Murney
       丹尼尔·伦敦 Daniel London
       詹妮弗·莫里森 Jennifer Morrison
       马修·瑞斯 Matthew Rhys
       凯特·宾汉 Kate Beahan
       詹姆斯·海恩德曼 James Hindman
       奥斯汀·迈克尔·杨 Austin Michael Young
       马德琳·韦斯特·杜乔夫尼 Madelaine West Duchovny
       诺亚·比恩 Noah Bean
       迪克·切尼 Dick Cheney
       约翰·克里 John Kerry
       雷切尔·玛多 Rachel Maddow
       约翰·麦凯恩 John McCain
       巴拉克·奥巴马 Barack Obama
       唐纳德·拉姆斯菲尔德 Donald Rumsfeld
       吉纳维芙亚当斯 Genevieve Adams
       尼尔·弗莱舍 Neil Fleischer
       罗丝玛丽·霍华德 Rosemary Howard


◎标  签 美国 | 政治 | 剧情 | 2019 | 真实事件改编 | 历史 | 独立 | 圣丹斯电影节

◎简  介  

  安妮特·贝宁、亚当·德赖弗、乔·哈姆、詹妮弗·莫里森主演新片《酷刑报告》(The Torture Report)新增数名卡司:蒂姆·布雷克·尼尔森、本·麦肯锡、马修·瑞斯、泰德·拉文、迈克尔·C·豪尔。Scott Z. Burns(《副作用》《谍影重重3》)自编自导,聚焦911事件之后,CIA对被拘留者执行的极端审讯计划。美国参议院情报委员会在2016年发布了一份500多页的报告,详细描述了令人震惊的审讯方式。Vice Studios投资制作,将在戛纳寻找买家,上周已在纽约开拍。

◎获奖情况  

  第77届金球奖(2020)
  电影类 最佳女配角(提名) 安妮特·贝宁

  第18届华盛顿影评人协会奖(2019)
  华盛顿特区最佳写照
[quote]Video
ID                                       : 1
Format                                   : HEVC
Format/Info                              : High Efficiency Video Coding
HDR format                               : SMPTE ST 2094 App 4, Version 0
Codec ID                                 : V_MPEGH/ISO/HEVC
Duration                                 : 1 h 59 min
Bit rate                                 : 14.6 Mb/s
Width                                    : 3 840 pixels
Height                                   : 1 600 pixels
Display aspect ratio                     : 2.40:1
Frame rate mode                          : Constant
Frame rate                               : 23.976 (24000/1001/189150) FPS
Standard                                 : NTSC
Color space                              : YUV
Chroma subsampling                       : 4:2:0 (Type 2)
Bit depth                                : 10 bits
Bits/(Pixel*Frame)                       : 0.099
Stream size                              : 12.2 GiB (96%)
Default                                  : Yes
Forced                                   : No
Color range                              : Limited
Color primaries                          : BT.2020
Transfer characteristics                 : PQ
Matrix coefficients                      : BT.2020 non-constant
Mastering display color primaries        : Display P3
Mastering display luminance              : min: 0.0001 cd/m2, max: 1000 cd/m2
Maximum Content Light Level              : 881 cd/m2
Maximum Frame-Average Light Level        : 259 cd/m2

Audio
ID                                       : 2
Format                                   : E-AC-3
Format/Info                              : Enhanced AC-3
Commercial name                          : Dolby Digital Plus
Codec ID                                 : A_EAC3
Duration                                 : 1 h 59 min
Bit rate mode                            : Constant
Bit rate                                 : 640 kb/s
Channel(s)                               : 6 channels
Channel layout                           : L R C LFE Ls Rs
Sampling rate                            : 48.0 kHz
Frame rate                               : 31.250 FPS (1536 SPF)
Compression mode                         : Lossy
Stream size                              : 548 MiB (4%)
Title                                    : English
Language                                 : English
Service kind                             : Complete Main
Default                                  : Yes
Forced                                   : No

Text #1
ID                                       : 3
Format                                   : UTF-8
Codec ID                                 : S_TEXT/UTF8
Codec ID/Info                            : UTF-8 Plain Text
Duration                                 : 52 s 928 ms
Bit rate                                 : 26 b/s
Count of elements                        : 8
Stream size                              : 175 Bytes (0%)
Title                                    : English [Forced]
Language                                 : English
Default                                  : No
Forced                                   : Yes

Text #2
ID                                       : 4
Format                                   : UTF-8
Codec ID                                 : S_TEXT/UTF8
Codec ID/Info                            : UTF-8 Plain Text
Duration                                 : 1 h 58 min
Bit rate                                 : 99 b/s
Count of elements                        : 2327
Stream size                              : 86.1 KiB (0%)
Title                                    : English [SDH]
Language                                 : English
Default                                  : No
Forced                                   : No

Text #3
ID                                       : 5
Format                                   : UTF-8
Codec ID                                 : S_TEXT/UTF8
Codec ID/Info                            : UTF-8 Plain Text
Duration                                 : 1 h 52 min
Bit rate                                 : 89 b/s
Count of elements                        : 1757
Stream size                              : 73.6 KiB (0%)
Title                                    : Castilian [Full]
Language                                 : Spanish
Default                                  : No
Forced                                   : No

Text #4
ID                                       : 6
Format                                   : UTF-8
Codec ID                                 : S_TEXT/UTF8
Codec ID/Info                            : UTF-8 Plain Text
Duration                                 : 1 h 52 min
Bit rate                                 : 87 b/s
Count of elements                        : 1798
Stream size                              : 72.0 KiB (0%)
Title                                    : Spanish [Full]
Language                                 : Spanish
Default                                  : No
Forced                                   : No

Text #5
ID                                       : 7
Format                                   : UTF-8
Codec ID                                 : S_TEXT/UTF8
Codec ID/Info                            : UTF-8 Plain Text
Duration                                 : 1 h 54 min
Bit rate                                 : 76 b/s
Count of elements                        : 1862
Stream size                              : 64.0 KiB (0%)
Title                                    : French [Full]
Language                                 : French
Default                                  : No
Forced                                   : No

Text #6
ID                                       : 8
Format                                   : UTF-8
Codec ID                                 : S_TEXT/UTF8
Codec ID/Info                            : UTF-8 Plain Text
Duration                                 : 1 h 55 min
Bit rate                                 : 92 b/s
Count of elements                        : 1642
Stream size                              : 77.7 KiB (0%)
Title                                    : Italian [Full]
Language                                 : Italian
Default                                  : No
Forced                                   : No

Text #7
ID                                       : 9
Format                                   : UTF-8
Codec ID                                 : S_TEXT/UTF8
Codec ID/Info                            : UTF-8 Plain Text
Duration                                 : 1 h 52 min
Bit rate                                 : 77 b/s
Count of elements                        : 1737
Stream size                              : 64.5 KiB (0%)
Title                                    : Brazilian Portuguese [Full]
Language                                 : Portuguese
Default                                  : No
Forced                                   : No

Text #8
ID                                       : 10
Format                                   : UTF-8
Codec ID                                 : S_TEXT/UTF8
Codec ID/Info                            : UTF-8 Plain Text
Duration                                 : 1 h 52 min
Bit rate                                 : 77 b/s
Count of elements                        : 1716
Stream size                              : 64.0 KiB (0%)
Title                                    : Polish [Full]
Language                                 : Polish
Default                                  : No
Forced                                   : No

Text #9
ID                                       : 11
Format                                   : UTF-8
Codec ID                                 : S_TEXT/UTF8
Codec ID/Info                            : UTF-8 Plain Text
Duration                                 : 1 h 52 min
Bit rate                                 : 85 b/s
Count of elements                        : 1758
Stream size                              : 70.4 KiB (0%)
Title                                    : Turkish [Full]
Language                                 : Turkish
Default                                  : No
Forced                                   : No

Text #10
ID                                       : 12
Format                                   : UTF-8
Codec ID                                 : S_TEXT/UTF8
Codec ID/Info                            : UTF-8 Plain Text
Duration                                 : 1 h 52 min
Bit rate                                 : 81 b/s
Count of elements                        : 1656
Stream size                              : 67.6 KiB (0%)
Title                                    : Swedish [Full]
Language                                 : Swedish
Default                                  : No
Forced                                   : No

Text #11
ID                                       : 13
Format                                   : UTF-8
Codec ID                                 : S_TEXT/UTF8
Codec ID/Info                            : UTF-8 Plain Text
Duration                                 : 1 h 52 min
Bit rate                                 : 76 b/s
Count of elements                        : 1703
Stream size                              : 63.6 KiB (0%)
Title                                    : Danish [Full]
Language                                 : Danish
Default                                  : No
Forced                                   : No

Text #12
ID                                       : 14
Format                                   : UTF-8
Codec ID                                 : S_TEXT/UTF8
Codec ID/Info                            : UTF-8 Plain Text
Duration                                 : 1 h 52 min
Bit rate                                 : 91 b/s
Count of elements                        : 1621
Stream size                              : 76.0 KiB (0%)
Title                                    : Finnish [Full]
Language                                 : Finnish
Default                                  : No
Forced                                   : No

Text #13
ID                                       : 15
Format                                   : UTF-8
Codec ID                                 : S_TEXT/UTF8
Codec ID/Info                            : UTF-8 Plain Text
Duration                                 : 1 h 54 min
Bit rate                                 : 72 b/s
Count of elements                        : 1258
Stream size                              : 60.9 KiB (0%)
Title                                    : Dutch [Full]
Language                                 : Dutch
Default                                  : No
Forced                                   : No

Text #14
ID                                       : 16
Format                                   : UTF-8
Codec ID                                 : S_TEXT/UTF8
Codec ID/Info                            : UTF-8 Plain Text
Duration                                 : 1 h 52 min
Bit rate                                 : 76 b/s
Count of elements                        : 1750
Stream size                              : 63.0 KiB (0%)
Title                                    : Norwegian (Bokm?l) [Full]
Language                                 : Norwegian Bokmal
Default                                  : No
Forced                                   : No

Text #15
ID                                       : 17
Format                                   : UTF-8
Codec ID                                 : S_TEXT/UTF8
Codec ID/Info                            : UTF-8 Plain Text
Duration                                 : 1 h 52 min
Bit rate                                 : 147 b/s
Count of elements                        : 1774
Stream size                              : 122 KiB (0%)
Title                                    : Russian [Full]
Language                                 : Russian
Default                                  : No
Forced                                   : No

Text #16
ID                                       : 18
Format                                   : UTF-8
Codec ID                                 : S_TEXT/UTF8
Codec ID/Info                            : UTF-8 Plain Text
Duration                                 : 1 h 52 min
Bit rate                                 : 125 b/s
Count of elements                        : 1765
Stream size                              : 104 KiB (0%)
Title                                    : Hebrew [Full]
Language                                 : Hebrew
Default                                  : No
Forced                                   : No

Text #17
ID                                       : 19
Format                                   : UTF-8
Codec ID                                 : S_TEXT/UTF8
Codec ID/Info                            : UTF-8 Plain Text
Duration                                 : 1 h 52 min
Bit rate                                 : 142 b/s
Count of elements                        : 1776
Stream size                              : 118 KiB (0%)
Title                                    : Arabic [Full]
Language                                 : Arabic
Default                                  : No
Forced                                   : No

Text #18
ID                                       : 20
Format                                   : UTF-8
Codec ID                                 : S_TEXT/UTF8
Codec ID/Info                            : UTF-8 Plain Text
Duration                                 : 1 h 58 min
Bit rate                                 : 213 b/s
Count of elements                        : 1881
Stream size                              : 184 KiB (0%)
Title                                    : Hindi [Full]
Language                                 : Hindi
Default                                  : No
Forced                                   : No

Text #19
ID                                       : 21
Format                                   : UTF-8
Codec ID                                 : S_TEXT/UTF8
Codec ID/Info                            : UTF-8 Plain Text
Duration                                 : 1 h 54 min
Bit rate                                 : 249 b/s
Count of elements                        : 1880
Stream size                              : 210 KiB (0%)
Title                                    : Tamil [Full]
Language                                 : Tamil
Default                                  : No
Forced                                   : No

Text #20
ID                                       : 22
Format                                   : UTF-8
Codec ID                                 : S_TEXT/UTF8
Codec ID/Info                            : UTF-8 Plain Text
Duration                                 : 1 h 58 min
Bit rate                                 : 246 b/s
Count of elements                        : 1889
Stream size                              : 213 KiB (0%)
Title                                    : Telugu [Full]
Language                                 : Telugu
Default                                  : No
Forced                                   : No

Text #21
ID                                       : 23
Format                                   : UTF-8
Codec ID                                 : S_TEXT/UTF8
Codec ID/Info                            : UTF-8 Plain Text
Duration                                 : 1 h 52 min
Bit rate                                 : 87 b/s
Count of elements                        : 1755
Stream size                              : 72.2 KiB (0%)
Title                                    : Indonesian [Full]
Language                                 : Indonesian
Default                                  : No
Forced                                   : No

Text #22
ID                                       : 24
Format                                   : UTF-8
Codec ID                                 : S_TEXT/UTF8
Codec ID/Info                            : UTF-8 Plain Text
Duration                                 : 1 h 52 min
Bit rate                                 : 215 b/s
Count of elements                        : 1774
Stream size                              : 178 KiB (0%)
Title                                    : Thai [Full]
Language                                 : Thai
Default                                  : No
Forced                                   : No

Text #23
ID                                       : 25
Format                                   : UTF-8
Codec ID                                 : S_TEXT/UTF8
Codec ID/Info                            : UTF-8 Plain Text
Duration                                 : 1 h 52 min
Bit rate                                 : 90 b/s
Count of elements                        : 1773
Stream size                              : 74.6 KiB (0%)
Title                                    : Korean [Full]
Language                                 : Korean
Default                                  : No
Forced                                   : No

Text #24
ID                                       : 26
Format                                   : UTF-8
Codec ID                                 : S_TEXT/UTF8
Codec ID/Info                            : UTF-8 Plain Text
Duration                                 : 1 h 52 min
Bit rate                                 : 85 b/s
Count of elements                        : 1777
Stream size                              : 71.0 KiB (0%)
Title                                    : Chinese (Simplified) [Full]
Language                                 : Chinese
Default                                  : No
Forced                                   : No

Text #25
ID                                       : 27
Format                                   : UTF-8
Codec ID                                 : S_TEXT/UTF8
Codec ID/Info                            : UTF-8 Plain Text
Duration                                 : 1 h 52 min
Bit rate                                 : 75 b/s
Count of elements                        : 1774
Stream size                              : 62.5 KiB (0%)
Title                                    : Chinese (Traditional) [Full]
Language                                 : Chinese
Default                                  : No
Forced                                   : No

Menu #1
00:00:00.000                             : en:Studio Logo
00:00:54.000                             : en:Acknowledgement
00:01:02.000                             : enan is interrogated
00:03:01.000                             : en:A timeline of events
00:08:33.000                             : en:The new offsite facility
00:10:46.000                             : en:Counter-terrorism after September 11th
00:15:09.000                             : en:A new tactic for research
00:16:40.000                             : enearning the best way to find out information
00:22:28.000                             : enifferent methods of interrogation
00:27:47.000                             : en:A key change in the investigation
00:33:34.000           &nb

回复

使用道具 举报

小黑屋|西西论坛

本网站所有资源来自网络,如无意中侵犯了您的权益,请发邮件至 [email protected],立即清除相关链接

GMT+8, 2020-6-4 00:20 , Processed in 0.069605 second(s), 20 queries .

Powered by Discuz! X3.2

© 2001-2013 Comsenz Inc.

快速回复 返回顶部 返回列表