西西论坛

 找回密码
 立即注册
搜索

驱魔航班 Exorcism.At.60000.Feet.2019.1080p.BluRay.x264-RedBlade 10.82GB

[复制链接]
电影首发 发表于 2020-5-19 15:31:35 | 显示全部楼层 |阅读模式
帖子完整标题:驱魔航班 Exorcism.At.60000.Feet.2019.1080p.BluRay.x264-RedBlade 10.82GB




◎译  名 驱魔航班
◎片  名 Exorcism at 60,000 Feet
◎年  代 2018
◎产  地 美国
◎类  别 恐怖
◎语  言 英语
◎上映日期 2019-08-09(美国)
◎IMDb评分  7.6/10 from 18 users
◎片  长 94分钟
◎导  演 Chad Ferrin
◎编  剧 Robert Rhine / Daniel Benton
◎主  演 罗伯特·米亚诺 Robert Miano
       白灵 Ling Bai
       兰斯·亨利克森 Lance Henriksen


◎标  签 白灵 | 驱魔 | 美国电影 | 美国 | 犯罪 | 恐怖 | 奇幻

◎简  介  

  暂无相关剧情介绍
Video
ID                                       : 1
Format                                   : AVC
Format/Info                              : Advanced Video Codec
Format settings                          : CABAC / 4 Ref Frames
Format settings, CABAC                   : Yes
Format settings, Reference frames        : 4 frames
Codec ID                                 : V_MPEG4/ISO/AVC
Duration                                 : 1 h 35 min
Bit rate                                 : 13.8 Mb/s
Width                                    : 1 920 pixels
Height                                   : 1 080 pixels
Display aspect ratio                     : 16:9
Frame rate mode                          : Constant
Frame rate                               : 23.976 (24000/1001/189150) FPS
Color space                              : YUV
Chroma subsampling                       : 4:2:0
Bit depth                                : 8 bits
Scan type                                : Progressive
Bits/(Pixel*Frame)                       : 0.278
Stream size                              : 9.25 GiB (86%)
Writing library                          : x264 core 160 r3000 33f9e14
Encoding settings                        : cabac=1 / ref=4 / deblock=1:-3:-3 / analyse=0x3:0x133 / me=umh / subme=9 / psy=1 / psy_rd=1.00:0.00 / mixed_ref=1 / me_range=16 / chroma_me=1 / trellis=2 / 8x8dct=1 / cqm=0 / deadzone=21,11 / fast_pskip=0 / chroma_qp_offset=-2 / threads=12 / lookahead_threads=1 / sliced_threads=0 / nr=0 / decimate=0 / interlaced=0 / bluray_compat=0 / constrained_intra=0 / bframes=3 / b_pyramid=2 / b_adapt=2 / b_bias=0 / direct=3 / weightb=1 / open_gop=0 / weightp=2 / keyint=240 / keyint_min=23 / scenecut=40 / intra_refresh=0 / rc_lookahead=60 / rc=crf / mbtree=1 / crf=17.0 / qcomp=0.60 / qpmin=0 / qpmax=69 / qpstep=4 / ip_ratio=1.40 / aq=3:0.80
Language                                 : English
Default                                  : Yes
Forced                                   : No

Audio
ID                                       : 2
Format                                   : DTS XLL
Format/Info                              : Digital Theater Systems
Commercial name                          : DTS-HD Master Audio
Codec ID                                 : A_DTS
Duration                                 : 1 h 35 min
Bit rate mode                            : Variable
Bit rate                                 : 2 315 kb/s
Channel(s)                               : 6 channels
Channel layout                           : C L R Ls Rs LFE
Sampling rate                            : 48.0 kHz
Frame rate                               : 93.750 FPS (512 SPF)
Bit depth                                : 24 bits
Compression mode                         : Lossless
Stream size                              : 1.55 GiB (14%)
Language                                 : English
Default                                  : Yes
Forced                                   : No

Text
ID                                       : 3
Format                                   : PGS
Muxing mode                              : zlib
Codec ID                                 : S_HDMV/PGS
Codec ID/Info                            : Picture based subtitle format used on BDs/HD-DVDs
Duration                                 : 1 h 35 min
Bit rate                                 : 19.7 kb/s
Count of elements                        : 2280
Stream size                              : 13.5 MiB (0%)
Language                                 : English
Default                                  : No
Forced                                   : No

Menu
00:00:00.000                             : en:00:00:00.000
00:09:36.451                             : en:00:09:36.451
00:16:41.375                             : en:00:16:41.375
00:25:00.791                             : en:00:25:00.791
00:33:11.239                             : en:00:33:11.239
00:40:35.933                             : en:00:40:35.933
00:50:10.174                             : en:00:50:10.174
00:57:38.413                             : en:00:57:38.413
01:06:44.626                             : en:01:06:44.626
01:14:11.322                             : en:01:14:11.322
01:21:45.734                             : en:01:21:45.734
01:31:13.426                             : en:01:31:13.426



                                                                                                                                                                                                        
                                                                                                                                                                                                                                                                                                                                                                                                                                                                                                                                                                                                                                                                                                                                                                                                                                                       0e6e96f932aee550cc2edbef9ee8bd9b.torrent (54.82 KB, 下载次数: 0)

回复

使用道具 举报

小黑屋|西西论坛

本网站所有资源来自网络,如无意中侵犯了您的权益,请发邮件至 [email protected],立即清除相关链接

GMT+8, 2020-6-3 13:18 , Processed in 0.056254 second(s), 23 queries .

Powered by Discuz! X3.2

© 2001-2013 Comsenz Inc.

快速回复 返回顶部 返回列表