西西论坛

 找回密码
 立即注册
搜索

我们剩下的未完成 What.We.Left.Behind.Looking.Back.At.Deep.Space.Nine....

[复制链接]
电影首发 发表于 2020-5-19 15:31:35 | 显示全部楼层 |阅读模式
帖子完整标题:我们剩下的未完成 What.We.Left.Behind.Looking.Back.At.Deep.Space.Nine.2018.1080p.BluRay.x264-NCC1701D 10.47GB




◎译  名 我们剩下的未完成 / DS9: What We Left Behind / What We Left Behind / What We Left Behind: Star Trek Deep Space Nine
◎片  名 What We Left Behind: Looking Back at Star Trek: Deep Space Nine
◎年  代 2018
◎产  地 美国
◎类  别 纪录片
◎语  言 英语
◎上映日期 2018-10-12(美国)
◎IMDb评分  8.4/10 from 994 users
◎导  演 Ira Steven Behr / David Zappone
◎主  演 佩妮·约翰逊 Penny Johnson
       特里·法瑞尔 Terry Farrell
       华莱士·肖恩 Wallace Shawn
       娜娜·维西特 Nana Visitor
       妮可·德波儿 Nicole de Boer
       雷内·奥博诺伊斯 Rene Auberjonois
       迈克尔·多恩 Michael Dorn
       杰弗瑞·考姆斯 Jeffrey Combs
       安德鲁·罗宾逊 Andrew Robinson
       科尔姆·米尼 Colm Meaney
       亚历山大·希迪格 Alexander Siddig
       詹姆斯·达伦 James Darren
       阿尔明·谢摩尔曼 Armin Shimerman
       马克·阿莱莫 Marc Alaimo
       艾弗利·布鲁克斯 Avery Brooks
       罗纳德·D·摩尔 Ronald D. Moore
       凯西·比格斯 Casey Biggs
       马克·伯纳登 Marc Bernardin
       大卫·卡森 David Carson
       迈克尔·皮勒 Michael Piller
       Bill Mumy
       Chase Masterson
       Aron Eisenberg
       Max Grodénchik
       Cirroc Lofton
       J.G. Hertzler
       Robert O'Reilly
       Cecily Adams
       Hana Hatae
       Rick Berman
       Junie Lowry-Johnson
       Felecia M. Bell
       Ira Steven Behr
       Doug Drexler
       Lolita Fatjo
       Jonathan West


◎标  签 纪录片 | 美国 | 2010s | 科幻 | 电影 | 星际旅行 | StarTrek | DS9

◎简  介  

  Shout! Studios拿下《星际迷航》纪录片《What We Left Behind: Looking Back at Star Trek: Deep Space Nine》的全球版权,计划在年底推出,包括院线上映在内的多个平台发行。
  影片将深度回顾《星际迷航》中最受误解的系列《深空九号》,1993年该剧作为《星际旅行:下一代》的衍生剧首播时,许多《星际迷航》的忠实粉丝认为,这部剧藐视了创作者吉恩·罗登贝瑞对星际探索时代人类高贵而团结的未来的宏大愿景。《深空九号》最终赢得了粉丝的喜爱,在七季的176集里,聚焦一个充满阴谋、绝望、外交、政治和暴利的空间站。
  纪录片由《深空九号》运作人Ira Steven Behr和David Zappone(《情系斯波克》)执导,包含对《深空九号》卡司和剧组人员的新采访。收起
Video
ID                                       : 1
Format                                   : AVC
Format/Info                              : Advanced Video Codec
Format settings                          : CABAC / 4 Ref Frames
Format settings, CABAC                   : Yes
Format settings, Reference frames        : 4 frames
Codec ID                                 : V_MPEG4/ISO/AVC
Duration                                 : 1 h 56 min
Bit rate                                 : 9 790 kb/s
Width                                    : 1 920 pixels
Height                                   : 1 080 pixels
Display aspect ratio                     : 16:9
Frame rate mode                          : Constant
Frame rate                               : 23.976 (24000/1001/189150) FPS
Color space                              : YUV
Chroma subsampling                       : 4:2:0
Bit depth                                : 8 bits
Scan type                                : Progressive
Bits/(Pixel*Frame)                       : 0.197
Stream size                              : 8.00 GiB (76%)
Writing library                          : x264 core 160 r3000 33f9e14
Encoding settings                        : cabac=1 / ref=4 / deblock=1:-3:-3 / analyse=0x3:0x133 / me=umh / subme=10 / psy=1 / psy_rd=1.00:0.00 / mixed_ref=1 / me_range=24 / chroma_me=1 / trellis=2 / 8x8dct=1 / cqm=0 / deadzone=21,11 / fast_pskip=0 / chroma_qp_offset=-2 / threads=18 / lookahead_threads=3 / sliced_threads=0 / nr=0 / decimate=0 / interlaced=0 / bluray_compat=0 / constrained_intra=0 / bframes=8 / b_pyramid=2 / b_adapt=2 / b_bias=0 / direct=3 / weightb=1 / open_gop=0 / weightp=2 / keyint=250 / keyint_min=23 / scenecut=40 / intra_refresh=0 / rc=crf / mbtree=0 / crf=17.0 / qcomp=0.60 / qpmin=0 / qpmax=69 / qpstep=4 / ip_ratio=1.40 / pb_ratio=1.30 / aq=3:0.60
Language                                 : English
Default                                  : Yes
Forced                                   : No

Audio
ID                                       : 2
Format                                   : DTS XLL
Format/Info                              : Digital Theater Systems
Commercial name                          : DTS-HD Master Audio
Codec ID                                 : A_DTS
Duration                                 : 1 h 56 min
Bit rate mode                            : Variable
Bit rate                                 : 2 773 kb/s
Channel(s)                               : 6 channels
Channel layout                           : C L R Ls Rs LFE
Sampling rate                            : 48.0 kHz
Frame rate                               : 93.750 FPS (512 SPF)
Bit depth                                : 24 bits
Compression mode                         : Lossless
Stream size                              : 2.26 GiB (22%)
Default                                  : Yes
Forced                                   : No

Text #1
ID                                       : 3
Format                                   : PGS
Muxing mode                              : zlib
Codec ID                                 : S_HDMV/PGS
Codec ID/Info                            : Picture based subtitle format used on BDs/HD-DVDs
Duration                                 : 1 h 56 min
Bit rate                                 : 61.3 kb/s
Count of elements                        : 2950
Stream size                              : 50.9 MiB (0%)
Title                                    : English SDH
Language                                 : English
Default                                  : No
Forced                                   : No

Text #2
ID                                       : 4
Format                                   : PGS
Muxing mode                              : zlib
Codec ID                                 : S_HDMV/PGS
Codec ID/Info                            : Picture based subtitle format used on BDs/HD-DVDs
Duration                                 : 1 h 55 min
Bit rate                                 : 58.4 kb/s
Count of elements                        : 3297
Stream size                              : 48.3 MiB (0%)
Title                                    : Spanish
Language                                 : Spanish
Default                                  : No
Forced                                   : No

Text #3
ID                                       : 5
Format                                   : PGS
Muxing mode                              : zlib
Codec ID                                 : S_HDMV/PGS
Codec ID/Info                            : Picture based subtitle format used on BDs/HD-DVDs
Duration                                 : 1 h 55 min
Bit rate                                 : 69.4 kb/s
Count of elements                        : 3042
Stream size                              : 57.4 MiB (1%)
Title                                    : French
Language                                 : French
Default                                  : No
Forced                                   : No

Text #4
ID                                       : 6
Format                                   : PGS
Muxing mode                              : zlib
Codec ID                                 : S_HDMV/PGS
Codec ID/Info                            : Picture based subtitle format used on BDs/HD-DVDs
Duration                                 : 1 h 55 min
Bit rate                                 : 63.3 kb/s
Count of elements                        : 3313
Stream size                              : 52.4 MiB (0%)
Title                                    : Italian
Language                                 : Italian
Default                                  : No
Forced                                   : No

Text #5
ID                                       : 7
Format                                   : PGS
Muxing mode                              : zlib
Codec ID                                 : S_HDMV/PGS
Codec ID/Info                            : Picture based subtitle format used on BDs/HD-DVDs
Duration                                 : 1 h 55 min
Bit rate                                 : 61.1 kb/s
Count of elements                        : 3008
Stream size                              : 50.6 MiB (0%)
Title                                    : Portuguese
Language                                 : Portuguese
Default                                  : No
Forced                                   : No

Text #6
ID                                       : 8
Format                                   : PGS
Muxing mode                              : zlib
Codec ID                                 : S_HDMV/PGS
Codec ID/Info                            : Picture based subtitle format used on BDs/HD-DVDs
Duration                                 : 1 h 55 min
Bit rate                                 : 61.9 kb/s
Count of elements                        : 3297
Stream size                              : 51.3 MiB (0%)
Title                                    : German
Language                                 : German
Default                                  : No
Forced                                   : No

Text #7
ID                                       : 9
Format                                   : PGS
Muxing mode                              : zlib
Codec ID                                 : S_HDMV/PGS
Codec ID/Info                            : Picture based subtitle format used on BDs/HD-DVDs
Duration                                 : 1 h 55 min
Bit rate                                 : 62.0 kb/s
Count of elements                        : 2952
Stream size                              : 51.4 MiB (0%)
Title                                    : Dutch
Language                                 : Dutch
Default                                  : No
Forced                                   : No

Menu
00:00:00.000                             : :Chapter 01
00:02:29.775                             : :Chapter 02
00:07:04.466                             : :Chapter 03
00:09:50.465                             : :Chapter 04
00:16:44.879                             : :Chapter 05
00:19:16.739                             : :Chapter 06
00:21:15.399                             : :Chapter 07
00:23:23.444                             : :Chapter 08
00:26:35.469                             : :Chapter 09
00:30:27.409                             : :Chapter 10
00:32:56.683                             : :Chapter 11
00:39:40.378                             : :Chapter 12
00:44:15.653                             : :Chapter 13
00:48:16.519                             : :Chapter 14
00:52:08.959                             : :Chapter 15
00:56:13.370                             : :Chapter 16
00:59:17.053                             : :Chapter 17
01:03:17.919                             : :Chapter 18
01:04:55.308                             : :Chapter 19
01:07:37.011                             : :Chapter 20
01:11:03.176                             : :Chapter 21
01:15:01.580                             : :Chapter 22
01:18:21.697                             : :Chapter 23
01:21:09.239                             : :Chapter 24
01:23:38.472                             : :Chapter 25
01:26:59.965                             : :Chapter 26
01:30:05.817                             : :Chapter 27
01:35:19.213                             : :Chapter 28
01:40:47.792                             : :Chapter 29
01:47:23.604                             : :Chapter 30



                                                                                                                                                                                                        
                                                                                                                                                                                                                                                                                                                                                                                                                                                                                                                                                                                                                                                                                                                                                                                                                                                       0c2b70ca124632279c3de6abf0f8571e.torrent (53.22 KB, 下载次数: 0)

回复

使用道具 举报

小黑屋|西西论坛

本网站所有资源来自网络,如无意中侵犯了您的权益,请发邮件至 [email protected],立即清除相关链接

GMT+8, 2020-6-3 11:46 , Processed in 0.189780 second(s), 23 queries .

Powered by Discuz! X3.2

© 2001-2013 Comsenz Inc.

快速回复 返回顶部 返回列表