西西论坛

 找回密码
 立即注册
搜索

白头山 Ashfall.2019.KOREAN.1080p.BluRay.x264.DTS-MT 18.73GB

[复制链接]
电影首发 发表于 2020-5-19 15:31:35 | 显示全部楼层 |阅读模式
帖子完整标题:白头山 Ashfall.2019.KOREAN.1080p.BluRay.x264.DTS-MT 18.73GB




◎译  名 白头山 / Ashfall / 白头山:半岛浩劫(台) / 白头山:火山浩劫(港) / 长白山
◎片  名 ???
◎年  代 2019
◎产  地 韩国
◎类  别 动作 / 灾难
◎语  言 韩语 / 英语 / 汉语普通话
◎上映日期 2019-12-19(韩国)
◎片  长 128分钟
◎导  演 李海准 Hae-jun Lee / 金丙书 Byung-seo Kim
◎编  剧 李海准 Hae-jun Lee
◎主  演 李秉宪 Byeng-hun Lee
       河正宇 Jung-woo Ha
       马东锡 Tong-Seok Ma
       全慧珍 Hye-jin Jeon
       裴秀智 Suzy Bae


◎标  签 灾难 | 韩国 | 河正宇 | 韩国电影 | 马东锡 | 李秉宪 | 动作 | 2019

◎简  介  

  李秉宪、河正宇、马东锡确认参演新片[长白山](???,暂译),目前正在调整影片细节问题,该片将由李海淮([金氏漂流记])、金丙书执导。影片讲述长白山火山爆发在即,各方人们抵御灾害的故事。李秉宪饰演阻止火山爆发的北韩人员,河正宇则化身南韩要员,和李秉宪角色共同合作抗争。马东锡饰演一名科学家。据悉影片将投入约200亿韩元,将在明年初开拍。
Video
ID                                       : 1
Format                                   : AVC
Format/Info                              : Advanced Video Codec
Format settings                          : CABAC / 5 Ref Frames
Format settings, CABAC                   : Yes
Format settings, Reference frames        : 5 frames
Codec ID                                 : V_MPEG4/ISO/AVC
Duration                                 : 2 h 8 min
Bit rate                                 : 19.4 Mb/s
Width                                    : 1 920 pixels
Height                                   : 804 pixels
Display aspect ratio                     : 2.40:1
Frame rate mode                          : Constant
Frame rate                               : 23.976 (24000/1001/189150) FPS
Color space                              : YUV
Chroma subsampling                       : 4:2:0
Bit depth                                : 8 bits
Scan type                                : Progressive
Bits/(Pixel*Frame)                       : 0.524
Stream size                              : 17.4 GiB (93%)
Writing library                          : x264 core 157 r2938 2b00a84 1 Mod
Encoding settings                        : cabac=1 / ref=5 / deblock=1:-3:-3 / analyse=0x3:0x133 / me=umh / subme=10 / psy=1 / psy_rd=1.05:0.00 / mixed_ref=1 / me_range=32 / chroma_me=1 / trellis=2 / 8x8dct=1 / cqm=0 / deadzone=21,11 / fast_pskip=0 / chroma_qp_offset=-2 / threads=12 / lookahead_threads=2 / sliced_threads=0 / nr=0 / decimate=0 / interlaced=0 / bluray_compat=0 / constrained_intra=0 / bframes=8 / b_pyramid=2 / b_adapt=2 / b_bias=0 / direct=3 / weightb=1 / open_gop=0 / weightp=2 / keyint=250 / keyint_min=24 / scenecut=40 / intra_refresh=0 / rc_lookahead=250 / rc=crf / mbtree=0 / crf=16.8 / qcomp=0.60 / qpmin=0 / qpmax=69 / qpstep=4 / vbv_maxrate=62500 / vbv_bufsize=78125 / crf_max=0.0 / nal_hrd=none / filler=0 / ip_ratio=1.30 / pb_ratio=1.20 / aq=3:0.80
Language                                 : Korean
Default                                  : Yes
Forced                                   : No
Color range                              : Limited
Color primaries                          : BT.709
Matrix coefficients                      : BT.709

Audio
ID                                       : 2
Format                                   : DTS
Format/Info                              : Digital Theater Systems
Codec ID                                 : A_DTS
Duration                                 : 2 h 8 min
Bit rate mode                            : Constant
Bit rate                                 : 1 509 kb/s
Channel(s)                               : 6 channels
Channel layout                           : C L R Ls Rs LFE
Sampling rate                            : 48.0 kHz
Frame rate                               : 93.750 FPS (512 SPF)
Bit depth                                : 16 bits
Compression mode                         : Lossy
Stream size                              : 1.35 GiB (7%)
Language                                 : Korean
Default                                  : Yes
Forced                                   : No

Text
ID                                       : 3
Format                                   : UTF-8
Codec ID                                 : S_TEXT/UTF8
Codec ID/Info                            : UTF-8 Plain Text
Duration                                 : 2 h 3 min
Bit rate                                 : 45 b/s
Count of elements                        : 1478
Stream size                              : 41.4 KiB (0%)
Language                                 : English
Default                                  : Yes
Forced                                   : No

Menu
00:00:00.000                             : en:Chapter 01
00:08:41.438                             : en:Chapter 02
00:20:37.111                             : en:Chapter 03
00:32:47.465                             : en:Chapter 04
00:43:46.082                             : en:Chapter 05
00:50:37.368                             : en:Chapter 06
01:04:59.354                             : en:Chapter 07
01:14:34.345                             : en:Chapter 08
01:26:07.662                             : en:Chapter 09
01:35:08.828                             : en:Chapter 10
01:48:06.980                             : en:Chapter 11
01:56:38.700                             : en:Chapter 12



                                                                                                                                                                                                        
                                                                                                                                                                                                                                                                                                                                                                                                                                                                                                                                                                                                                                                                                                                                                                                                                                                       405f633b6deedb47acec0a6cbed6fcc9.torrent (94.16 KB, 下载次数: 0)

回复

使用道具 举报

小黑屋|西西论坛

本网站所有资源来自网络,如无意中侵犯了您的权益,请发邮件至 [email protected],立即清除相关链接

GMT+8, 2020-6-3 12:06 , Processed in 0.058995 second(s), 23 queries .

Powered by Discuz! X3.2

© 2001-2013 Comsenz Inc.

快速回复 返回顶部 返回列表