西西论坛

 找回密码
 立即注册
搜索

[4K-原盘] 1/2的魔法 Onward.2020.2160p.BluRay.REMUX.HEVC.DTS-HD.MA.TrueHD.7.1.Atmos-F...

[复制链接]
电影首发 发表于 2020-5-18 03:54:45 | 显示全部楼层 |阅读模式
帖子完整标题:1/2的魔法 Onward.2020.2160p.BluRay.REMUX.HEVC.DTS-HD.MA.TrueHD.7.1.Atmos-FGT 41.64GB




◎译  名 1 / 2的魔法 / ?的魔法 / 二分之一的魔法 / 勇往直前 / 向前 / 觅法奇程 / 魔法环游记
◎片  名 Onward
◎年  代 2020
◎产  地 美国
◎类  别 喜剧 / 动画 / 奇幻 / 冒险
◎语  言 英语
◎上映日期 2020-02-21(柏林电影节) / 2020-03-06(美国)
◎IMDb评分  7.5/10 from 52609 users
◎片  长 102分钟
◎导  演 丹·斯坎隆 Dan Scanlon
◎编  剧 丹·斯坎隆 Dan Scanlon / 基思·布宁 Keith Bunin
◎主  演 汤姆·赫兰德 Tom Holland
       克里斯·帕拉特 Chris Pratt
       茱莉亚·路易斯-德瑞弗斯 Julia Louis-Dreyfus
       奥克塔维亚·斯宾瑟 Octavia Spencer
       梅尔·罗德里格斯 Mel Rodriguez
       凯尔·柏海莫 Kyle Bornheimer
       丽娜·维特 Lena Waithe
       黄阿丽 Ali Wong
       格蕾·德丽斯勒 Grey DeLisle
       崔茜·尤玛 Tracey Ullman
       维尔摩·瓦尔德拉玛 Wilmer Valderrama
       乔治·普萨拉 George Psarras
       约翰·拉岑贝格 John Ratzenberger


◎标  签 动画 | 皮克斯 | 迪士尼 | 美国 | 魔法 | 奇幻 | 2020 | 魔幻

◎简  介  

  影片设定在一个由精灵、巨魔和灵魂等组成的郊外幻想世界,在那里独角兽在垃圾桶中穿行,像是有着糖果条纹的负鼠。影片提供了一个前提,即魔法是真实的,但它早已被现代技术所遗忘和取代。一对十几岁的兄弟,在他们尚不更事时父亲便已离世,他们决定进入这个幻想世界,与父亲共度最后一个神奇的日子。霍兰德配音弟弟伊安、帕拉特配音聒噪的哥哥、德瑞弗斯配音兄弟二人的母亲、斯宾瑟则会利用其声线的优势。
Video
ID                                       : 1
ID in the original source medium         : 4113 (0x1011)
Format                                   : HEVC
Format/Info                              : High Efficiency Video Coding
HDR format                               : SMPTE ST 2086, HDR10 compatible
Codec ID                                 : V_MPEGH/ISO/HEVC
Duration                                 : 1 h 42 min
Bit rate                                 : 40.3 Mb/s
Width                                    : 3 840 pixels
Height                                   : 2 160 pixels
Display aspect ratio                     : 16:9
Frame rate mode                          : Constant
Frame rate                               : 23.976 (24000/1001/189150) FPS
Color space                              : YUV
Chroma subsampling                       : 4:2:0 (Type 2)
Bit depth                                : 10 bits
Bits/(Pixel*Frame)                       : 0.202
Stream size                              : 28.8 GiB (69%)
Title                                    : Onward.2020.2160p.BluRay.REMUX.HEVC.DTS-HD.MA.TrueHD.7.1.Atmos-FGT
Writing library                          : ATEME Titan File 3.9.0 (4.9.0.0)        
Language                                 : English
Default                                  : No
Forced                                   : No
Color range                              : Limited
Color primaries                          : BT.2020
Transfer characteristics                 : PQ
Matrix coefficients                      : BT.2020 non-constant
Mastering display color primaries        : Display P3
Mastering display luminance              : min: 0.0000 cd/m2, max: 1000 cd/m2
Original source medium                   : Blu-ray

Audio #1
ID                                       : 2
ID in the original source medium         : 4352 (0x1100)
Format                                   : MLP FBA 16-ch
Format/Info                              : Meridian Lossless Packing FBA with 16-channel presentation
Commercial name                          : Dolby TrueHD with Dolby Atmos
Codec ID                                 : A_TRUEHD
Duration                                 : 1 h 42 min
Bit rate mode                            : Variable
Bit rate                                 : 7 021 kb/s
Maximum bit rate                         : 10.9 Mb/s
Channel(s)                               : 8 channels
Channel layout                           : L R C LFE Ls Rs Lb Rb
Sampling rate                            : 48.0 kHz
Frame rate                               : 1 200.000 FPS (40 SPF)
Compression mode                         : Lossless
Stream size                              : 5.02 GiB (12%)
Title                                    : Onward.2020.2160p.BluRay.REMUX.HEVC.DTS-HD.MA.TrueHD.7.1.Atmos-FGT
Language                                 : English
Default                                  : Yes
Forced                                   : No
Original source medium                   : Blu-ray
Number of dynamic objects                : 13
Bed channel count                        : 1 channel
Bed channel configuration                : LFE

Audio #2
ID                                       : 3
Format                                   : DTS XLL
Format/Info                              : Digital Theater Systems
Commercial name                          : DTS-HD Master Audio
Codec ID                                 : A_DTS
Duration                                 : 1 h 42 min
Bit rate mode                            : Variable
Bit rate                                 : 4 700 kb/s
Channel(s)                               : 8 channels
Channel layout                           : C L R LFE Lb Rb Lss Rss
Sampling rate                            : 48.0 kHz
Frame rate                               : 93.750 FPS (512 SPF)
Bit depth                                : 24 bits
Compression mode                         : Lossless
Stream size                              : 3.36 GiB (8%)
Title                                    : Onward.2020.2160p.BluRay.REMUX.HEVC.DTS-HD.MA.TrueHD.7.1.Atmos-FGT
Language                                 : English
Default                                  : No
Forced                                   : No

Audio #3
ID                                       : 4
ID in the original source medium         : 4352 (0x1100)
Format                                   : AC-3
Format/Info                              : Audio Coding 3
Commercial name                          : Dolby Digital
Codec ID                                 : A_AC3
Duration                                 : 1 h 42 min
Bit rate mode                            : Constant
Bit rate                                 : 640 kb/s
Channel(s)                               : 6 channels
Channel layout                           : L R C LFE Ls Rs
Sampling rate                            : 48.0 kHz
Frame rate                               : 31.250 FPS (1536 SPF)
Bit depth                                : 16 bits
Compression mode                         : Lossy
Stream size                              : 469 MiB (1%)
Title                                    : Onward.2020.2160p.BluRay.REMUX.HEVC.DTS-HD.MA.TrueHD.7.1.Atmos-FGT
Language                                 : English
Service kind                             : Complete Main
Default                                  : No
Forced                                   : No
Original source medium                   : Blu-ray

Audio #4
ID                                       : 5
Format                                   : E-AC-3
Format/Info                              : Enhanced AC-3
Commercial name                          : Dolby Digital Plus
Format profile                           : Blu-ray Disc
Codec ID                                 : A_EAC3
Duration                                 : 1 h 42 min
Bit rate mode                            : Constant
Bit rate                                 : 1 024 kb/s
Channel(s)                               : 8 channels
Channel layout                           : L R C LFE Ls Rs Lb Rb
Sampling rate                            : 48.0 kHz
Frame rate                               : 31.250 FPS (1536 SPF)
Compression mode                         : Lossy
Stream size                              : 750 MiB (2%)
Title                                    : Onward.2020.2160p.BluRay.REMUX.HEVC.DTS-HD.MA.TrueHD.7.1.Atmos-FGT
Language                                 : English
Service kind                             : Complete Main
Default                                  : No
Forced                                   : No

Audio #5
ID                                       : 6
ID in the original source medium         : 4354 (0x1102)
Format                                   : AC-3
Format/Info                              : Audio Coding 3
Commercial name                          : Dolby Digital
Codec ID                                 : A_AC3
Duration                                 : 1 h 42 min
Bit rate mode                            : Constant
Bit rate                                 : 640 kb/s
Channel(s)                               : 6 channels
Channel layout                           : L R C LFE Ls Rs
Sampling rate                            : 48.0 kHz
Frame rate                               : 31.250 FPS (1536 SPF)
Bit depth                                : 16 bits
Compression mode                         : Lossy
Stream size                              : 469 MiB (1%)
Title                                    : Onward.2020.2160p.BluRay.REMUX.HEVC.DTS-HD.MA.TrueHD.7.1.Atmos-FGT
Language                                 : English
Service kind                             : Complete Main
Default                                  : No
Forced                                   : No
Original source medium                   : Blu-ray

Audio #6
ID                                       : 7
ID in the original source medium         : 4355 (0x1103)
Format                                   : AC-3
Format/Info                              : Audio Coding 3
Commercial name                          : Dolby Digital
Codec ID                                 : A_AC3
Duration                                 : 1 h 42 min
Bit rate mode                            : Constant
Bit rate                                 : 320 kb/s
Channel(s)                               : 2 channels
Channel layout                           : L R
Sampling rate                            : 48.0 kHz
Frame rate                               : 31.250 FPS (1536 SPF)
Bit depth                                : 16 bits
Compression mode                         : Lossy
Stream size                              : 234 MiB (1%)
Title                                    : Onward.2020.2160p.BluRay.REMUX.HEVC.DTS-HD.MA.TrueHD.7.1.Atmos-FGT
Language                                 : English
Service kind                             : Complete Main
Default                                  : No
Forced                                   : No
Original source medium                   : Blu-ray

Audio #7
ID                                       : 8
ID in the original source medium         : 4356 (0x1104)
Format                                   : AC-3
Format/Info                              : Audio Coding 3
Commercial name                          : Dolby Digital
Codec ID                                 : A_AC3
Duration                                 : 1 h 42 min
Bit rate mode                            : Constant
Bit rate                                 : 320 kb/s
Channel(s)                               : 2 channels
Channel layout                           : L R
Sampling rate                            : 48.0 kHz
Frame rate                               : 31.250 FPS (1536 SPF)
Bit depth                                : 16 bits
Compression mode                         : Lossy
Stream size                              : 234 MiB (1%)
Title                                    : Onward.2020.2160p.BluRay.REMUX.HEVC.DTS-HD.MA.TrueHD.7.1.Atmos-FGT
Language                                 : English
Service kind                             : Complete Main
Default                                  : No
Forced                                   : No
Original source medium                   : Blu-ray



Menu
00:00:00.000                             : en:Chapter 01
00:02:29.941                             : en:Chapter 02
00:07:06.259                             : en:Chapter 03
00:08:13.993                             : en:Chapter 04
00:12:44.805                             : en:Chapter 05
00:14:53.475                             : en:Chapter 06
00:19:20.659                             : en:Chapter 07
00:23:46.049                             : en:Chapter 08
00:25:34.741                             : en:Chapter 09
00:26:11.111                             : en:Chapter 10
00:27:25.435                             : en:Chapter 11
00:30:01.883                             : en:Chapter 12
00:32:49.133                             : en:Chapter 13
00:34:43.623                             : en:Chapter 14
00:36:40.740                             : en:Chapter 15
00:40:41.981                             : en:Chapter 16
00:42:48.607                             : en:Chapter 17
00:44:02.139                             : en:Chapter 18
00:45:40.904                             : en:Chapter 19
00:47:49.157                             : en:Chapter 20
00:52:01.243                             : en:Chapter 21
00:55:12.142                             : en:Chapter 22
00:57:23.565                             : en:Chapter 23
01:02:23.281                             : en:Chapter 24
01:04:02.964                             : en:Chapter 25
01:07:13.070                             : en:Chapter 26
01:08:49.041                             : en:Chapter 27
01:10:05.784                             : en:Chapter 28
01:11:12.142                             : en:Chapter 29
01:13:13.055                             : en:Chapter 30
01:15:58.720                             : en:Chapter 31
01:17:37.027                             : en:Chapter 32
01:20:26.321                             : en:Chapter 33
01:25:00.929                             : en:Chapter 34
01:26:59.589                             : en:Chapter 35
01:30:10.738                             : en:Chapter 36
01:32:51.899                             : en:Chapter 37



                                                                                                                                                                                                        
                                                                                                                                                                                                                                                                                                                                                                                                                                                                                                                                                                                                                                                                                                                                                                                                                                                       d3fdae58d05c0ab3d30bf546371ddfde.torrent (104.66 KB, 下载次数: 0)

回复

使用道具 举报

小黑屋|西西论坛

本网站所有资源来自网络,如无意中侵犯了您的权益,请发邮件至 [email protected],立即清除相关链接

GMT+8, 2020-6-4 00:14 , Processed in 0.068018 second(s), 23 queries .

Powered by Discuz! X3.2

© 2001-2013 Comsenz Inc.

快速回复 返回顶部 返回列表