西西论坛

 找回密码
 立即注册
搜索

亡命大画家 My.Masterpiece.2018.1080p.BluRay.x264-USURY 9.60GB

[复制链接]
电影首发 发表于 2020-5-18 03:24:35 | 显示全部楼层 |阅读模式
帖子完整标题:亡命大画家 My.Masterpiece.2018.1080p.BluRay.x264-USURY 9.60GB




◎译  名 亡命大画家 / My Masterpiece / 我的杰作 / 玩死大画家(港) / 计高一筹(台)
◎片  名 Mi obra maestra
◎年  代 2018
◎产  地 阿根廷 / 西班牙
◎类  别 喜剧
◎语  言 西班牙语
◎上映日期 2018-08-16(阿根廷) / 2018-11-16(西班牙)
◎片  长 100分钟
◎导  演 加斯顿·杜帕拉特 Gastón Duprat
◎编  剧 加斯顿·杜帕拉特 Gastón Duprat
◎主  演 安德列·阿卡托 Andrea Acatto
       卢卡斯·阿兰达 Lucas Aranda
       劳尔·阿雷瓦洛 Raúl Arévalo
       艾哈迈迪·阿齐姆 Mahmoud Azim
       路易斯·布兰多尼 Luis Brandoni
       古勒莫·法兰塞拉 Guillermo Francella
       安德丽娅·弗里杰里奥 Andrea Frigerio


◎标  签 阿根廷 | 黑色幽默 | 西班牙 | 喜剧 | 2018 | 艺术 | 剧情 | 讽刺

◎简  介  

  《杰出公民》导演加斯顿·杜帕拉特最新力作。阿图罗斯尔瓦,一个圆滑势利的画廊主,对布宜诺斯艾利斯有着将近痴迷的偏爱。伦佐纳维尔,一个乖僻厌世的画家,对时兴艺术不闻不问,声名过后早已被世界遗忘。二人观念个性处处相悖,且随时间流逝矛盾愈发激烈,在这段积灰的友谊即将告终之时一场 车祸让阿图罗不得不回到无依无靠的伦佐身边。回温四十年的漫长过往两个老朋友走到了最终的和解,老画家的悲观绝望驱使阿图罗找到杜杜,一个颇有手腕的国际收藏家,试图向其销售画作,回转局势。尝试失败后,他们想到了一个疯狂极端,注定将撼动艺术界并永远的改变他们一生的主意。
Video
ID                                       : 1
Format                                   : AVC
Format/Info                              : Advanced Video Codec
Format settings                          : CABAC / 5 Ref Frames
Format settings, CABAC                   : Yes
Format settings, Reference frames        : 5 frames
Codec ID                                 : V_MPEG4/ISO/AVC
Duration                                 : 1 h 44 min
Bit rate                                 : 11.3 Mb/s
Width                                    : 1 920 pixels
Height                                   : 802 pixels
Display aspect ratio                     : 2.40:1
Frame rate mode                          : Constant
Frame rate                               : 24.000 FPS
Color space                              : YUV
Chroma subsampling                       : 4:2:0
Bit depth                                : 8 bits
Scan type                                : Progressive
Bits/(Pixel*Frame)                       : 0.305
Stream size                              : 8.24 GiB (86%)
Writing library                          : x264 core 160 r3000 33f9e14
Encoding settings                        : cabac=1 / ref=5 / deblock=1:-3:-3 / analyse=0x3:0x133 / me=umh / subme=10 / psy=1 / psy_rd=1.00:0.15 / mixed_ref=1 / me_range=24 / chroma_me=1 / trellis=2 / 8x8dct=1 / cqm=0 / deadzone=21,11 / fast_pskip=1 / chroma_qp_offset=-3 / threads=18 / lookahead_threads=3 / sliced_threads=0 / nr=0 / decimate=1 / interlaced=0 / bluray_compat=0 / constrained_intra=0 / bframes=8 / b_pyramid=2 / b_adapt=2 / b_bias=0 / direct=3 / weightb=1 / open_gop=0 / weightp=2 / keyint=250 / keyint_min=24 / scenecut=40 / intra_refresh=0 / rc_lookahead=60 / rc=crf / mbtree=1 / crf=15.0 / qcomp=0.60 / qpmin=0 / qpmax=69 / qpstep=4 / ip_ratio=1.40 / aq=3:0.60
Language                                 : English
Default                                  : Yes
Forced                                   : No

Audio
ID                                       : 2
Format                                   : DTS XLL
Format/Info                              : Digital Theater Systems
Commercial name                          : DTS-HD Master Audio
Codec ID                                 : A_DTS
Duration                                 : 1 h 44 min
Bit rate mode                            : Variable
Bit rate                                 : 1 845 kb/s
Channel(s)                               : 6 channels
Channel layout                           : C L R Ls Rs LFE
Sampling rate                            : 48.0 kHz
Frame rate                               : 93.750 FPS (512 SPF)
Bit depth                                : 16 bits
Compression mode                         : Lossless
Stream size                              : 1.35 GiB (14%)
Language                                 : Spanish
Default                                  : Yes
Forced                                   : No

Text #1
ID                                       : 3
Format                                   : UTF-8
Codec ID                                 : S_TEXT/UTF8
Codec ID/Info                            : UTF-8 Plain Text
Duration                                 : 1 h 34 min
Bit rate                                 : 73 b/s
Count of elements                        : 1415
Stream size                              : 51.1 KiB (0%)
Title                                    : English
Language                                 : English
Default                                  : Yes
Forced                                   : Yes

Text #2
ID                                       : 4
Format                                   : PGS
Muxing mode                              : zlib
Codec ID                                 : S_HDMV/PGS
Codec ID/Info                            : Picture based subtitle format used on BDs/HD-DVDs
Duration                                 : 1 h 34 min
Bit rate                                 : 14.1 kb/s
Count of elements                        : 2828
Stream size                              : 9.52 MiB (0%)
Title                                    : English
Language                                 : English
Default                                  : No
Forced                                   : No

Text #3
ID                                       : 5
Format                                   : UTF-8
Codec ID                                 : S_TEXT/UTF8
Codec ID/Info                            : UTF-8 Plain Text
Duration                                 : 1 min 45 s
Bit rate                                 : 67 b/s
Count of elements                        : 17
Stream size                              : 889 Bytes (0%)
Title                                    : Spanish forced
Language                                 : Spanish
Default                                  : No
Forced                                   : No

Text #4
ID                                       : 6
Format                                   : PGS
Muxing mode                              : zlib
Codec ID                                 : S_HDMV/PGS
Codec ID/Info                            : Picture based subtitle format used on BDs/HD-DVDs
Duration                                 : 1 min 45 s
Bit rate                                 : 11.9 kb/s
Count of elements                        : 34
Stream size                              : 152 KiB (0%)
Title                                    : Spanish forced
Language                                 : Spanish
Default                                  : No
Forced                                   : No

Menu
00:00:00.000                             : en:00:00:00.000
00:07:59.958                             : en:00:07:59.958
00:16:10.167                             : en:00:16:10.167
00:24:22.750                             : en:00:24:22.750
00:30:54.833                             : en:00:30:54.833
00:39:39.792                             : en:00:39:39.792
00:48:34.083                             : en:00:48:34.083
01:00:43.125                             : en:01:00:43.125
01:09:41.750                             : en:01:09:41.750
01:14:34.708                             : en:01:14:34.708
01:21:08.375                             : en:01:21:08.375
01:32:39.083                             : en:01:32:39.083



                                                                                                                                                                                                        
                                                                                                                                                                                                                                                                                                                                                                                                                                                                                                                                                                                                                                                                                                                                                                                                                                                       48a0c20ba115c7fe88e469a26ce8641f.torrent (48.73 KB, 下载次数: 0)

回复

使用道具 举报

小黑屋|西西论坛

本网站所有资源来自网络,如无意中侵犯了您的权益,请发邮件至 [email protected],立即清除相关链接

GMT+8, 2020-6-3 12:14 , Processed in 0.066737 second(s), 23 queries .

Powered by Discuz! X3.2

© 2001-2013 Comsenz Inc.

快速回复 返回顶部 返回列表