西西论坛

 找回密码
 立即注册
搜索

我讨厌耶稣 Jesus.2018.720p.BluRay.x264-BiPOLAR 3.31GB

[复制链接]
电影首发 发表于 2020-5-18 03:14:19 | 显示全部楼层 |阅读模式
帖子完整标题:我讨厌耶稣 Jesus.2018.720p.BluRay.x264-BiPOLAR 3.31GB




◎译  名 我讨厌耶稣 / Jesus / 小小小耶稣(港) / 耶穌真係落左嚟
◎片  名 僕はイエス様が嫌い
◎年  代 2018
◎产  地 日本
◎类  别 剧情 / 家庭 / 儿童
◎语  言 日语
◎上映日期 2018-09-23(圣塞巴斯蒂安电影节) / 2019-05-31(日本)
◎IMDb评分  6.5/10 from 124 users
◎片  长 76分钟
◎导  演 奥山大史 Hiroshi Okuyama
◎编  剧 奥山大史 Hiroshi Okuyama
◎主  演 佐藤结良
       大熊理树
       查德·穆莱恩 Chad Mullane
       木引优子
       ただのあっ子
       二瓶鲛一 K?ichi Nihei
       秋山建一
       大迫一平
       北山雅康 Masayasu Kitayama
       佐伯日菜子 Hinako Saeki


◎标  签 日本 | 日本电影 | 2018 | 宗教 | 奥山大史 | 儿童 | 电影 | 2019

◎简  介  

  男孩Yura随家人离开日本到爱下雪的乡村与祖父一起生活,为此他不得不适应新的学校,而且还是一所基督学校。刚开始,Yura对被召集去敬拜上帝感到十分困惑,但他正逐渐适应这个新环境。在一次祷告时,Yura看到一个很小的耶稣出现,而他对小耶稣所许的每个愿望都能实现,让Yura开始相信上帝的力量。

◎获奖情况  

  第66届圣塞巴斯蒂安国际电影节(2018)
  最佳新导演 奥山大史
Video
ID                                       : 1
Format                                   : AVC
Format/Info                              : Advanced Video Codec
Format settings                          : CABAC / 12 Ref Frames
Format settings, CABAC                   : Yes
Format settings, Reference frames        : 12 frames
Codec ID                                 : V_MPEG4/ISO/AVC
Duration                                 : 1 h 15 min
Bit rate                                 : 5 582 kb/s
Width                                    : 960 pixels
Height                                   : 720 pixels
Display aspect ratio                     : 4:3
Frame rate mode                          : Constant
Frame rate                               : 23.976 (24000/1001/189150) FPS
Color space                              : YUV
Chroma subsampling                       : 4:2:0
Bit depth                                : 8 bits
Scan type                                : Progressive
Bits/(Pixel*Frame)                       : 0.337
Stream size                              : 2.96 GiB (89%)
Writing library                          : x264 core 160 r3000 33f9e14
Encoding settings                        : cabac=1 / ref=12 / deblock=1:-3:-3 / analyse=0x3:0x133 / me=umh / subme=10 / psy=1 / psy_rd=1.00:0.15 / mixed_ref=1 / me_range=24 / chroma_me=1 / trellis=2 / 8x8dct=1 / cqm=0 / deadzone=21,11 / fast_pskip=1 / chroma_qp_offset=-3 / threads=18 / lookahead_threads=3 / sliced_threads=0 / nr=0 / decimate=1 / interlaced=0 / bluray_compat=0 / constrained_intra=0 / bframes=8 / b_pyramid=2 / b_adapt=2 / b_bias=0 / direct=3 / weightb=1 / open_gop=0 / weightp=2 / keyint=250 / keyint_min=23 / scenecut=40 / intra_refresh=0 / rc_lookahead=60 / rc=crf / mbtree=1 / crf=14.0 / qcomp=0.60 / qpmin=0 / qpmax=69 / qpstep=4 / ip_ratio=1.40 / aq=3:0.50
Language                                 : English
Default                                  : Yes
Forced                                   : No

Audio
ID                                       : 2
Format                                   : AC-3
Format/Info                              : Audio Coding 3
Commercial name                          : Dolby Digital
Codec ID                                 : A_AC3
Duration                                 : 1 h 15 min
Bit rate mode                            : Constant
Bit rate                                 : 640 kb/s
Channel(s)                               : 6 channels
Channel layout                           : L R C LFE Ls Rs
Sampling rate                            : 48.0 kHz
Frame rate                               : 31.250 FPS (1536 SPF)
Bit depth                                : 16 bits
Compression mode                         : Lossy
Stream size                              : 348 MiB (10%)
Language                                 : Japanese
Service kind                             : Complete Main
Default                                  : Yes
Forced                                   : No

Text #1
ID                                       : 3
Format                                   : UTF-8
Codec ID                                 : S_TEXT/UTF8
Codec ID/Info                            : UTF-8 Plain Text
Duration                                 : 1 h 15 min
Bit rate                                 : 33 b/s
Count of elements                        : 751
Stream size                              : 18.4 KiB (0%)
Title                                    : English
Language                                 : English
Default                                  : Yes
Forced                                   : Yes

Text #2
ID                                       : 4
Format                                   : PGS
Muxing mode                              : zlib
Codec ID                                 : S_HDMV/PGS
Codec ID/Info                            : Picture based subtitle format used on BDs/HD-DVDs
Duration                                 : 1 h 15 min
Bit rate                                 : 6 622 b/s
Count of elements                        : 1502
Stream size                              : 3.59 MiB (0%)
Title                                    : English
Language                                 : English
Default                                  : No
Forced                                   : No

Text #3
ID                                       : 5
Format                                   : PGS
Muxing mode                              : zlib
Codec ID                                 : S_HDMV/PGS
Codec ID/Info                            : Picture based subtitle format used on BDs/HD-DVDs
Duration                                 : 1 h 15 min
Bit rate                                 : 10.9 kb/s
Count of elements                        : 1818
Stream size                              : 5.89 MiB (0%)
Title                                    : Japanese SDH
Language                                 : Japanese
Default                                  : No
Forced                                   : No

Menu
00:00:00.000                             : en:00:00:00.000
00:05:07.390                             : en:00:05:07.390
00:15:09.450                             : en:00:15:09.450
00:19:29.377                             : en:00:19:29.377
00:22:32.351                             : en:00:22:32.351
00:25:30.154                             : en:00:25:30.154
00:30:42.007                             : en:00:30:42.007
00:35:14.279                             : en:00:35:14.279
00:43:03.247                             : en:00:43:03.247
00:48:28.948                             : en:00:48:28.948
00:57:44.461                             : en:00:57:44.461
01:05:59.956                             : en:01:05:59.956



                                                                                                                                                                                                        
                                                                                                                                                                                                                                                                                                                                                                                                                                                                                                                                                                                                                                                                                                                                                                                                                                                       858fec508c3e4272406a99bb1ac74a18.torrent (33.79 KB, 下载次数: 0)

回复

使用道具 举报

小黑屋|西西论坛

本网站所有资源来自网络,如无意中侵犯了您的权益,请发邮件至 [email protected],立即清除相关链接

GMT+8, 2020-5-29 14:25 , Processed in 0.075752 second(s), 23 queries .

Powered by Discuz! X3.2

© 2001-2013 Comsenz Inc.

快速回复 返回顶部 返回列表