西西论坛

 找回密码
 立即注册
搜索

黑暗正义联盟:天启星战争 Justice.League.Dark.Apokolips.War.2020.720...

[复制链接]
电影首发 发表于 2020-5-18 03:14:19 | 显示全部楼层 |阅读模式
帖子完整标题:黑暗正义联盟:天启星战争 Justice.League.Dark.Apokolips.War.2020.720p.BluRay.x264-WUTANG 3.08GB




◎译  名 黑暗正义联盟:天启星战争
◎片  名 Justice League Dark: Apokolips War
◎年  代 2020
◎产  地 美国
◎类  别 动画 / 奇幻
◎语  言 英语
◎上映日期 2020-05-05(美国)
◎IMDb评分  8.3/10 from 1175 users
◎片  长 90分钟
◎导  演 马特·皮特斯 Matt Peters / Christina Sotta
◎编  剧 厄尼·阿特巴克 Ernie Altbacker / 麦格里德·斯科特 Mairghread Scott
◎主  演 托尼·托德 Tony Todd
       丽贝卡·罗梅恩 Rebecca Romijn
       罗莎里奥·道森 Rosario Dawson
       雷恩·威尔森 Rainn Wilson
       卡米拉·卢丁顿 Camilla Luddington
       泰莎·法米加 Taissa Farmiga
       杰瑞·奥康奈尔 Jerry O'Connell
       谢默·摩尔 Shemar Moore
       克里斯托弗·戈勒姆 Christopher Gorham
       马特·瑞安 Matt Ryan
       杰森·奥玛拉 Jason O'Mara
       连姆·麦肯泰尔 Liam McIntyre
       约翰·迪·马吉欧 John Di Maggio
       海登·瓦尔希 Hynden Walch
       罗杰·R.克劳斯 Roger R. Cross
       雷·蔡斯 Ray Chase
       斯图尔特·艾伦 Stuart Allan
       萨奇·阿莱西奥 Sachie Alessio


◎标  签 DC | 动画 | 正义联盟 | 超级英雄 | 美国 | DC动漫 | 漫画改编 | DCAMU

◎简  介  

  正义联盟集结地球上所有超级英雄一起对抗强大的反派达克赛德。
Video
ID                                       : 1
Format                                   : AVC
Format/Info                              : Advanced Video Codec
Format settings                          : CABAC / 9 Ref Frames
Format settings, CABAC                   : Yes
Format settings, Reference frames        : 9 frames
Codec ID                                 : V_MPEG4/ISO/AVC
Duration                                 : 1 h 30 min
Bit rate                                 : 4 097 kb/s
Width                                    : 1 280 pixels
Height                                   : 720 pixels
Display aspect ratio                     : 16:9
Frame rate mode                          : Constant
Frame rate                               : 23.976 (24000/1001/189150) FPS
Color space                              : YUV
Chroma subsampling                       : 4:2:0
Bit depth                                : 8 bits
Scan type                                : Progressive
Bits/(Pixel*Frame)                       : 0.185
Stream size                              : 2.58 GiB (84%)
Writing library                          : x264 core 160 r3000 33f9e14
Encoding settings                        : cabac=1 / ref=9 / deblock=1:1:1 / analyse=0x3:0x133 / me=umh / subme=9 / psy=1 / psy_rd=0.50:0.00 / mixed_ref=1 / me_range=16 / chroma_me=1 / trellis=2 / 8x8dct=1 / cqm=0 / deadzone=21,11 / fast_pskip=0 / chroma_qp_offset=-2 / threads=22 / lookahead_threads=2 / sliced_threads=0 / nr=0 / decimate=1 / interlaced=0 / bluray_compat=0 / constrained_intra=0 / bframes=5 / b_pyramid=2 / b_adapt=2 / b_bias=0 / direct=3 / weightb=1 / open_gop=0 / weightp=2 / keyint=250 / keyint_min=23 / scenecut=40 / intra_refresh=0 / rc=crf / mbtree=0 / crf=17.0 / qcomp=0.60 / qpmin=0 / qpmax=69 / qpstep=4 / ip_ratio=1.40 / pb_ratio=1.30 / aq=3:0.90
Default                                  : Yes
Forced                                   : No
Color range                              : Limited
Matrix coefficients                      : BT.709

Audio #1
ID                                       : 2
Format                                   : AC-3
Format/Info                              : Audio Coding 3
Commercial name                          : Dolby Digital
Codec ID                                 : A_AC3
Duration                                 : 1 h 30 min
Bit rate mode                            : Constant
Bit rate                                 : 640 kb/s
Channel(s)                               : 6 channels
Channel layout                           : L R C LFE Ls Rs
Sampling rate                            : 48.0 kHz
Frame rate                               : 31.250 FPS (1536 SPF)
Bit depth                                : 16 bits
Compression mode                         : Lossy
Stream size                              : 413 MiB (13%)
Title                                    : English
Language                                 : English
Service kind                             : Complete Main
Default                                  : Yes
Forced                                   : No

Audio #2
ID                                       : 3
Format                                   : AAC LC
Format/Info                              : Advanced Audio Codec Low Complexity
Codec ID                                 : A_AAC-2
Duration                                 : 1 h 30 min
Bit rate                                 : 91.0 kb/s
Channel(s)                               : 2 channels
Channel layout                           : L R
Sampling rate                            : 48.0 kHz
Frame rate                               : 46.875 FPS (1024 SPF)
Compression mode                         : Lossy
Delay relative to video                  : 9 ms
Stream size                              : 58.7 MiB (2%)
Title                                    : Commentary
Language                                 : English
Default                                  : No
Forced                                   : No

Text #1
ID                                       : 4
Format                                   : PGS
Muxing mode                              : zlib
Codec ID                                 : S_HDMV/PGS
Codec ID/Info                            : Picture based subtitle format used on BDs/HD-DVDs
Duration                                 : 1 h 25 min
Bit rate                                 : 33.1 kb/s
Count of elements                        : 2490
Stream size                              : 20.2 MiB (1%)
Language                                 : English
Default                                  : No
Forced                                   : No

Text #2
ID                                       : 5
Format                                   : PGS
Muxing mode                              : zlib
Codec ID                                 : S_HDMV/PGS
Codec ID/Info                            : Picture based subtitle format used on BDs/HD-DVDs
Duration                                 : 1 h 29 min
Bit rate                                 : 28.5 kb/s
Count of elements                        : 1974
Stream size                              : 18.2 MiB (1%)
Language                                 : French
Default                                  : No
Forced                                   : No

Text #3
ID                                       : 6
Format                                   : PGS
Muxing mode                              : zlib
Codec ID                                 : S_HDMV/PGS
Codec ID/Info                            : Picture based subtitle format used on BDs/HD-DVDs
Duration                                 : 1 h 29 min
Bit rate                                 : 28.4 kb/s
Count of elements                        : 1978
Stream size                              : 18.1 MiB (1%)
Language                                 : Spanish
Default                                  : No
Forced                                   : No

Text #4
ID                                       : 7
Format                                   : PGS
Muxing mode                              : zlib
Codec ID                                 : S_HDMV/PGS
Codec ID/Info                            : Picture based subtitle format used on BDs/HD-DVDs
Duration                                 : 1 h 24 min
Bit rate                                 : 21.3 kb/s
Count of elements                        : 1770
Stream size                              : 12.9 MiB (0%)
Language                                 : Japanese
Default                                  : No
Forced                                   : No

Text #5
ID                                       : 8
Format                                   : PGS
Muxing mode                              : zlib
Codec ID                                 : S_HDMV/PGS
Codec ID/Info                            : Picture based subtitle format used on BDs/HD-DVDs
Duration                                 : 1 h 29 min
Bit rate                                 : 49.2 kb/s
Count of elements                        : 2830
Stream size                              : 31.6 MiB (1%)
Language                                 : Japanese
Default                                  : No
Forced                                   : No

Text #6
ID                                       : 9
Format                                   : PGS
Muxing mode                              : zlib
Codec ID                                 : S_HDMV/PGS
Codec ID/Info                            : Picture based subtitle format used on BDs/HD-DVDs
Duration                                 : 28 min 15 s
Bit rate                                 : 491 b/s
Count of elements                        : 8
Stream size                              : 102 KiB (0%)
Language                                 : French
Default                                  : No
Forced                                   : No

Menu
00:00:00.000                             : en:Chapter 01
00:08:30.885                             : en:Chapter 02
00:17:35.096                             : en:Chapter 03
00:27:06.625                             : en:Chapter 04
00:35:31.171                             : en:Chapter 05
00:44:35.673                             : en:Chapter 06
00:53:16.110                             : en:Chapter 07
01:01:53.793                             : en:Chapter 08
01:08:14.340                             : en:Chapter 09
01:17:38.195                             : en:Chapter 10
01:26:55.043                             : en:Chapter 11



                                                                                                                                                                                                        
                                                                                                                                                                                                                                                                                                                                                                                                                                                                                                                                                                                                                                                                                                                                                                                                                                                       61b697ee6cf8fb731bcb6ddbcc44d7a4.torrent (31.61 KB, 下载次数: 0)

回复

使用道具 举报

小黑屋|西西论坛

本网站所有资源来自网络,如无意中侵犯了您的权益,请发邮件至 [email protected],立即清除相关链接

GMT+8, 2020-8-11 18:42 , Processed in 0.109716 second(s), 23 queries .

Powered by Discuz! X3.2

© 2001-2013 Comsenz Inc.

快速回复 返回顶部 返回列表