西西论坛

 找回密码
 立即注册
搜索

红蓝大作战 第一季 Red.vs.Blue.Season.17.Singularity.2019.720p.BluRay....

[复制链接]
电影首发 发表于 2020-5-18 03:14:19 | 显示全部楼层 |阅读模式
帖子完整标题:红蓝大作战 第一季 Red.vs.Blue.Season.17.Singularity.2019.720p.BluRay.x264-LATENCY 4.60GB




◎译  名 红蓝大作战 第一季
◎片  名 Red vs. Blue: The Blood Gulch Chronicles Season 1
◎年  代 2003
◎产  地 美国
◎类  别 喜剧 / 动作 / 科幻 / 动画 / 冒险
◎语  言 英语
◎上映日期 2003-11-25
◎IMDb评分  8.3/10 from 8739 users
◎集  数 19
◎片  长 5分钟
◎导  演 Burnie Burns / Matt Hullum
◎编  剧 Burnie Burns / Matt Hullum
◎主  演 Burnie Burns
       Jason Salda?a
       Gustavo Sorola


◎标  签 美国 | 动画 | 科幻 | 喜剧 | 2003 | 美国动画 | 电视剧 | RVB

◎简  介  

  The first season of of the action-comedy series Red vs. Blue and part of the The Blood Gulch Chronicles. A gruff sergeant. An unlucky ghost. A psychotic mercenary. A sarcastic slacker. An unrepentant kiss-up. Two morons. A tank with impeccable manners. And a robot stuck on the Spanish setting... War is hell.  (摘自RVB官方YouTube频道)
Video
ID                                       : 1
Format                                   : AVC
Format/Info                              : Advanced Video Codec
Format settings                          : CABAC / 8 Ref Frames
Format settings, CABAC                   : Yes
Format settings, Reference frames        : 8 frames
Codec ID                                 : V_MPEG4/ISO/AVC
Duration                                 : 2 h 17 min
Bit rate                                 : 4 107 kb/s
Width                                    : 1 280 pixels
Height                                   : 720 pixels
Display aspect ratio                     : 16:9
Frame rate mode                          : Constant
Frame rate                               : 23.976 (24000/1001/189150) FPS
Color space                              : YUV
Chroma subsampling                       : 4:2:0
Bit depth                                : 8 bits
Scan type                                : Progressive
Bits/(Pixel*Frame)                       : 0.186
Stream size                              : 3.94 GiB (86%)
Writing library                          : x264 core 160 r3000 33f9e14
Encoding settings                        : cabac=1 / ref=8 / deblock=1:1:1 / analyse=0x3:0x133 / me=umh / subme=9 / psy=1 / psy_rd=0.60:0.00 / mixed_ref=1 / me_range=32 / chroma_me=1 / trellis=2 / 8x8dct=1 / cqm=0 / deadzone=21,11 / fast_pskip=0 / chroma_qp_offset=-2 / threads=22 / lookahead_threads=3 / sliced_threads=0 / nr=0 / decimate=0 / interlaced=0 / bluray_compat=0 / constrained_intra=0 / bframes=9 / b_pyramid=2 / b_adapt=2 / b_bias=0 / direct=3 / weightb=1 / open_gop=0 / weightp=2 / keyint=250 / keyint_min=23 / scenecut=40 / intra_refresh=0 / rc=crf / mbtree=0 / crf=16.2 / qcomp=0.60 / qpmin=0 / qpmax=69 / qpstep=4 / ip_ratio=1.40 / pb_ratio=1.30 / aq=1:1.10
Default                                  : Yes
Forced                                   : No
Color range                              : Limited
Matrix coefficients                      : BT.709

Audio
ID                                       : 2
Format                                   : AC-3
Format/Info                              : Audio Coding 3
Commercial name                          : Dolby Digital
Codec ID                                 : A_AC3
Duration                                 : 2 h 17 min
Bit rate mode                            : Constant
Bit rate                                 : 640 kb/s
Channel(s)                               : 6 channels
Channel layout                           : L R C LFE Ls Rs
Sampling rate                            : 48.0 kHz
Frame rate                               : 31.250 FPS (1536 SPF)
Bit depth                                : 16 bits
Compression mode                         : Lossy
Stream size                              : 628 MiB (13%)
Title                                    : English
Language                                 : English
Service kind                             : Complete Main
Default                                  : No
Forced                                   : No

Text #1
ID                                       : 3
Format                                   : PGS
Muxing mode                              : zlib
Codec ID                                 : S_HDMV/PGS
Codec ID/Info                            : Picture based subtitle format used on BDs/HD-DVDs
Duration                                 : 2 h 14 min
Bit rate                                 : 57.2 kb/s
Count of elements                        : 5500
Stream size                              : 54.9 MiB (1%)
Title                                    : English
Language                                 : English
Default                                  : No
Forced                                   : No

Text #2
ID                                       : 4
Format                                   : PGS
Muxing mode                              : zlib
Codec ID                                 : S_HDMV/PGS
Codec ID/Info                            : Picture based subtitle format used on BDs/HD-DVDs
Duration                                 : 2 h 17 min
Bit rate                                 : 49.3 kb/s
Count of elements                        : 5216
Stream size                              : 48.3 MiB (1%)
Title                                    : French
Language                                 : French
Default                                  : No
Forced                                   : No

Menu
00:00:00.000                             : en:Chapter 01
00:10:25.291                             : en:Chapter 02
00:18:46.876                             : en:Chapter 03
00:26:25.959                             : en:Chapter 04
00:35:59.491                             : en:Chapter 05
00:45:06.370                             : en:Chapter 06
00:52:38.989                             : en:Chapter 07
00:59:16.553                             : en:Chapter 08
01:09:18.071                             : en:Chapter 09
01:18:07.558                             : en:Chapter 10
01:28:10.035                             : en:Chapter 11
01:34:56.357                             : en:Chapter 12
01:44:19.170                             : en:Chapter 13
01:53:50.824                             : en:Chapter 14
02:02:41.521                             : en:Chapter 15
02:11:02.146                             : en:Chapter 16
02:14:17.383                             : en:Chapter 17



                                                                                                                                                                                                        
                                                                                                                                                                                                                                                                                                                                                                                                                                                                                                                                                                                                                                                                                                                                                                                                                                                       c18f9806dbbc95066585670f189d0bdc.torrent (46.64 KB, 下载次数: 0)

回复

使用道具 举报

小黑屋|西西论坛

本网站所有资源来自网络,如无意中侵犯了您的权益,请发邮件至 [email protected],立即清除相关链接

GMT+8, 2020-5-29 13:11 , Processed in 0.076194 second(s), 23 queries .

Powered by Discuz! X3.2

© 2001-2013 Comsenz Inc.

快速回复 返回顶部 返回列表