西西论坛

 找回密码
 立即注册
搜索

隐形人/隐形客 The.Invisible.Man.2020.720p.BluRay.x264.DTS-FGT 6.09GB

[复制链接]
电影首发 发表于 2020-5-18 03:14:19 | 显示全部楼层 |阅读模式
帖子完整标题:隐形人/隐形客 The.Invisible.Man.2020.720p.BluRay.x264.DTS-FGT 6.09GB




◎译  名 隐形人 / 隐形客(港) / 隐身人
◎片  名 The Invisible Man
◎年  代 2020
◎产  地 澳大利亚 / 美国 / 加拿大 / 英国
◎类  别 科幻 / 惊悚 / 恐怖
◎语  言 英语
◎上映日期 2020-02-28(美国)
◎IMDb评分  7.2/10 from 90442 users
◎片  长 124分钟
◎导  演 雷·沃纳尔 Leigh Whannell
◎编  剧 雷·沃纳尔 Leigh Whannell / 赫伯特·乔治·威尔斯 H.G. Wells
◎主  演 伊丽莎白·莫斯 Elisabeth Moss
       奥利弗·杰森-科恩 Oliver Jackson-Cohen
       阿尔迪斯·霍吉 Aldis Hodge
       迈克尔·多曼 Michael Dorman
       斯托姆·瑞德 Storm Reid
       本尼迪克·哈迪 Benedict Hardie
       哈丽特·戴尔 Harriet Dyer
       瑞妮·林 Renee Lim
       布莱恩·米根 Brian Meegan
       薇薇安·格里尔 Vivienne Greer
       尼古拉斯·霍普 Nicholas Hope
       克利夫·威廉姆斯 Cleave Williams
       萨姆·史密斯 Sam Smith
       扎拉·迈克尔斯 Zara Michales
       纳许·埃哲顿 Nash Edgerton
       安东尼·布兰登·黄 Anthony Brandon Wong
       阿玛莉·沃德 Amali Ward
       迈克尔·诺特 Michael Knott


◎标  签 惊悚 | 悬疑 | 恐怖 | 科幻 | 美国 | 犯罪 | 2020 | 剧情

◎简  介  

  西西莉亚(伊丽莎白·莫斯 Elisabeth Moss 饰)再也想不到,曾经将自己迷得神魂颠倒的英俊男人阿德里安(奥利弗·杰森-科恩 Oliver Jackson-Cohen 饰),如今会成为噩梦的始作俑者。在和自己恋爱后没多久,阿德里安便开始对西西莉亚进行精神和肉体上的双重控制,终于,忍无可忍的西西莉亚在一天深夜用安定将阿德里安迷晕,成功的逃出了魔窟。
  之后,西西莉亚震惊的收到了阿德里安自杀的消息了,她几乎不敢相信,这个魔头真的从自己的生活中彻彻底底的消失了。西西莉亚的疑虑并不是空穴来风,在她生活的角角落落中,似乎都有一个无形的影子在窥视着她,企图触碰她。
Video
ID                                       : 1
Format                                   : AVC
Format/Info                              : Advanced Video Codec
Format settings                          : CABAC / 4 Ref Frames
Format settings, CABAC                   : Yes
Format settings, Reference frames        : 4 frames
Codec ID                                 : V_MPEG4/ISO/AVC
Duration                                 : 2 h 4 min
Bit rate                                 : 5 500 kb/s
Width                                    : 1 280 pixels
Height                                   : 536 pixels
Display aspect ratio                     : 2.40:1
Frame rate mode                          : Constant
Frame rate                               : 23.976 (24000/1001/189150) FPS
Color space                              : YUV
Chroma subsampling                       : 4:2:0
Bit depth                                : 8 bits
Scan type                                : Progressive
Bits/(Pixel*Frame)                       : 0.334
Stream size                              : 4.78 GiB (78%)
Title                                    : The.Invisible.Man.2020.720p.BluRay.x264.DTS-FGT
Writing library                          : x264 core 148 r2748 97eaef2
Encoding settings                        : cabac=1 / ref=4 / deblock=1:-2:-2 / analyse=0x3:0x113 / me=umh / subme=9 / psy=1 / psy_rd=1.00:0.15 / mixed_ref=1 / me_range=16 / chroma_me=1 / trellis=2 / 8x8dct=1 / cqm=0 / deadzone=21,11 / fast_pskip=1 / chroma_qp_offset=-3 / threads=72 / lookahead_threads=3 / sliced_threads=0 / nr=0 / decimate=1 / interlaced=0 / bluray_compat=0 / constrained_intra=0 / bframes=3 / b_pyramid=2 / b_adapt=1 / b_bias=0 / direct=3 / weightb=1 / open_gop=0 / weightp=2 / keyint=250 / keyint_min=25 / scenecut=40 / intra_refresh=0 / rc_lookahead=50 / rc=2pass / mbtree=1 / bitrate=5500 / ratetol=1.0 / qcomp=0.60 / qpmin=0 / qpmax=69 / qpstep=4 / cplxblur=20.0 / qblur=0.5 / vbv_maxrate=31250 / vbv_bufsize=31250 / nal_hrd=none / filler=0 / ip_ratio=1.40 / aq=1:1.00
Language                                 : English
Default                                  : Yes
Forced                                   : No

Audio
ID                                       : 2
Format                                   : DTS
Format/Info                              : Digital Theater Systems
Codec ID                                 : A_DTS
Duration                                 : 2 h 4 min
Bit rate mode                            : Constant
Bit rate                                 : 1 509 kb/s
Channel(s)                               : 6 channels
Channel layout                           : C L R Ls Rs LFE
Sampling rate                            : 48.0 kHz
Frame rate                               : 93.750 FPS (512 SPF)
Bit depth                                : 24 bits
Compression mode                         : Lossy
Stream size                              : 1.31 GiB (22%)
Title                                    : The.Invisible.Man.2020.720p.BluRay.x264.DTS-FGT
Language                                 : English
Default                                  : Yes
Forced                                   : No

Text #1
ID                                       : 3
Format                                   : UTF-8
Codec ID                                 : S_TEXT/UTF8
Codec ID/Info                            : UTF-8 Plain Text
Duration                                 : 1 h 49 min
Bit rate                                 : 31 b/s
Count of elements                        : 863
Stream size                              : 25.5 KiB (0%)
Language                                 : English
Default                                  : Yes
Forced                                   : No

Text #2
ID                                       : 4
Format                                   : UTF-8
Codec ID                                 : S_TEXT/UTF8
Codec ID/Info                            : UTF-8 Plain Text
Duration                                 : 1 h 50 min
Bit rate                                 : 35 b/s
Count of elements                        : 1045
Stream size                              : 28.9 KiB (0%)
Title                                    : SDH
Language                                 : English
Default                                  : No
Forced                                   : No

Menu
00:00:00.000                             : en:Chapter 01
00:11:05.456                             : en:Chapter 02
00:16:08.968                             : en:Chapter 03
00:19:16.321                             : en:Chapter 04
00:25:27.651                             : en:Chapter 05
00:35:52.233                             : en:Chapter 06
00:39:50.179                             : en:Chapter 07
00:46:35.459                             : en:Chapter 08
00:52:41.867                             : en:Chapter 09
01:01:22.011                             : en:Chapter 10
01:08:59.802                             : en:Chapter 11
01:14:49.735                             : en:Chapter 12
01:19:23.925                             : en:Chapter 13
01:24:46.539                             : en:Chapter 14
01:30:25.336                             : en:Chapter 15
01:35:24.927                             : en:Chapter 16
01:39:33.342                             : en:Chapter 17
01:43:04.178                             : en:Chapter 18
01:48:54.694                             : en:Chapter 19
01:53:38.603                             : en:Chapter 20



                                                                                                                                                                                                        
                                                                                                                                                                                                                                                                                                                                                                                                                                                                                                                                                                                                                                                                                                                                                                                                                                                       09bbc976a5121bc037f1a363a0b6726a.torrent (30.98 KB, 下载次数: 0)

回复

使用道具 举报

小黑屋|西西论坛

本网站所有资源来自网络,如无意中侵犯了您的权益,请发邮件至 [email protected],立即清除相关链接

GMT+8, 2020-5-29 11:57 , Processed in 0.081867 second(s), 23 queries .

Powered by Discuz! X3.2

© 2001-2013 Comsenz Inc.

快速回复 返回顶部 返回列表