西西论坛

 找回密码
 立即注册
搜索

[BD-4K] 摩天轮/奇幻摩天轮 Wonder.Wheel.2017.HDR.2160p.WEB.h265-WATCHER 10.67GB

[复制链接]
电影首发 发表于 2020-5-15 18:37:18 | 显示全部楼层 |阅读模式
子完整标题:摩天轮/奇幻摩天轮 Wonder.Wheel.2017.HDR.2160p.WEB.h265-WATCHER 10.67GB




◎译  名 摩天轮 / 奇幻摩天轮(港) / 奇迹摩天轮 / 摩天轮奇缘 / 爱情摩天轮(台)
◎片  名 Wonder Wheel
◎年  代 2017
◎产  地 美国
◎类  别 剧情
◎语  言 英语
◎上映日期 2017-10-14(纽约电影节) / 2017-12-01(美国)
◎IMDb评分  6.2/10 from 23177 users
◎片  长 101分钟
◎导  演 伍迪·艾伦 Woody Allen
◎编  剧 伍迪·艾伦 Woody Allen
◎主  演 凯特·温丝莱特 Kate Winslet
       贾斯汀·汀布莱克 Justin Timberlake
       詹姆斯·贝鲁什 James Belushi
       朱诺·坦普尔 Juno Temple
       马克斯·凯塞拉 Max Casella
       杰克·戈尔 Jack Gore
       大卫·克鲁霍尔特兹 David Krumholtz
       罗伯特·C·柯克 Robert C. Kirk
       汤米·诺伊利 Tommy Nohilly
       托尼·西里科 Tony Sirico
       史蒂夫·石林帕 Steve Schirripa
       约翰·多马尼安 John Doumanian
       汤姆·盖里 Tom Guiry
       格雷戈瑞·丹恩 Gregory Dann
       鲍比·斯雷顿 Bobby Slayton
       迈克尔·泽加斯基 Michael Zegarski
       吉内瓦·卡尔 Geneva Carr
       艾德·朱厄特 Ed Jewett
       黛比·玛扎 Debi Mazar
       达尼埃尔·费兰 Danielle Ferland
       麦迪·科尔曼 Maddie Corman
       雅各布·伯杰 Jacob Berger
       珍娜·斯特恩 Jenna Stern
       迈克尔·斯特里亚诺 Michael Striano
       约翰·麦尼尔利 John Mainieri


◎标  签 美国 | 伍迪.艾伦 | 爱情 | 剧情 | 2017 | 文艺 | woodyallen | 黑色幽默

◎简  介  

  哈姆迪(吉姆·贝鲁什 Jim Belushi 饰)和妻子金妮(凯特·温丝莱特 Kate Winslet 饰)一起在游乐场生活和工作,金妮有过一段婚姻,两人共同抚养着金妮和前夫所生的孩子。一天,哈姆迪的女儿卡洛琳娜(朱诺·坦普尔 Juno Temple 饰)找到了父亲,她曾经执意嫁给黑帮大佬,如今正在遭受黑帮的追杀。
  虽然女儿从前的所作所为令哈姆迪十分生气,但卡洛琳娜的浪子回头显然让哈姆迪开始想要修复这段破碎的父女关系。与此同时,金妮邂逅了海滩救生员米奇(贾斯汀·汀布莱克 Justin Timberlake 饰),两人之间碰撞出了爱情的火花。金妮想要抛弃一切同米奇在一起,然而,在看到了卡洛琳娜之后,米奇不可自持的移情别恋了。

◎获奖情况  

  第21届好莱坞电影奖(2017)
  年度女主角 凯特·温丝莱特
Video
ID                                       : 1
Format                                   : HEVC
Format/Info                              : High Efficiency Video Coding
HDR format                               : SMPTE ST 2094 App 4, Version 0
Codec ID                                 : V_MPEGH/ISO/HEVC
Duration                                 : 1 h 40 min
Bit rate                                 : 14.5 Mb/s
Width                                    : 3 840 pixels
Height                                   : 1 920 pixels
Display aspect ratio                     : 2.000
Frame rate mode                          : Constant
Frame rate                               : 23.976 (24000/1001/189150) FPS
Standard                                 : NTSC
Color space                              : YUV
Chroma subsampling                       : 4:2:0 (Type 2)
Bit depth                                : 10 bits
Bits/(Pixel*Frame)                       : 0.082
Stream size                              : 10.2 GiB (96%)
Default                                  : Yes
Forced                                   : No
Color range                              : Limited
Color primaries                          : BT.2020
Transfer characteristics                 : PQ
Matrix coefficients                      : BT.2020 non-constant
Mastering display color primaries        : Display P3
Mastering display luminance              : min: 0.0001 cd/m2, max: 1000 cd/m2
Maximum Content Light Level              : 959 cd/m2
Maximum Frame-Average Light Level        : 113 cd/m2

Audio
ID                                       : 2
Format                                   : E-AC-3
Format/Info                              : Enhanced AC-3
Commercial name                          : Dolby Digital Plus
Codec ID                                 : A_EAC3
Duration                                 : 1 h 40 min
Bit rate mode                            : Constant
Bit rate                                 : 640 kb/s
Channel(s)                               : 6 channels
Channel layout                           : L R C LFE Ls Rs
Sampling rate                            : 48.0 kHz
Frame rate                               : 31.250 FPS (1536 SPF)
Compression mode                         : Lossy
Stream size                              : 462 MiB (4%)
Title                                    : English
Language                                 : English
Service kind                             : Complete Main
Default                                  : Yes
Forced                                   : No

Text
ID                                       : 3
Format                                   : UTF-8
Codec ID                                 : S_TEXT/UTF8
Codec ID/Info                            : UTF-8 Plain Text
Duration                                 : 1 h 40 min
Bit rate                                 : 98 b/s
Count of elements                        : 2316
Stream size                              : 72.6 KiB (0%)
Title                                    : English [SDH]
Language                                 : English
Default                                  : No
Forced                                   : No

Menu
00:00:00.000                             : en:Amazon Original
00:00:21.000                             : en:Opening Credits
00:01:03.000                             : en:In walks Carolina
00:12:21.000                             : en:Ginny asks Humpty how long Carolina is staying
00:14:20.000                             : en:Richie's problem with matches
00:16:14.000                             : en:Ginny tells Richie about her early schooling days
00:17:52.000                             : en:How Mickey met Ginny
00:21:55.000                             : en:Ginny prepares herself to tell Mickey the truth
00:28:01.000                             : en:One thing leads to another
00:30:53.000                             : en:Two men ask Humpty about Carolina's whereabouts
00:33:54.000                             : en:The two men head West while Carolina continues life on the boardwalk
00:35:28.000                             : enife continues on the pier
00:40:06.000                             : en:Carolina asks Mickey about a book
00:42:01.000                             : en:Ginny learns of Carolina's new crush
00:44:22.000                             : en:Ginny warns Mickey of Carolina
00:46:11.000                             : en:Mickey gives Carolina a lift to work
00:51:53.000                             : en:Ginny's tombstone birthday
01:02:59.000                             : en:Ginny asks Humpty for money
01:05:18.000                             : en:Ginny makes her jealousy apparent to Mickey
01:07:54.000                             : en:Mickey looks to his friend Jake for advice
01:09:38.000                             : en:Ginny gets Mickey a birthday gift
01:15:38.000                             : en:Ginny spirals out of control back at home
01:17:58.000                             : en:Ginny spots danger from afar
01:20:43.000                             : en:Carolina and Mickey have their pizza date
01:24:01.000                             : en:Humpty asks Mickey where Carolina is
01:25:35.000                             : en:Humpty lets out his frustration on Ginny
01:28:38.000                             : en:Mickey confronts Ginny
01:38:06.000                             : en:End Credits



                                                                                                                                                                                                        
                                                                                                                                                                                                                                                                                                                                                                                                                                                                                                                                                                                                                                                                                                                                                                                                                                                         f25d41e39fe4e6b6e3b362e1480addb5.torrent (53.96 KB, 下载次数: 0)

回复

使用道具 举报

小黑屋|西西论坛

本网站所有资源来自网络,如无意中侵犯了您的权益,请发邮件至 [email protected],立即清除相关链接

GMT+8, 2020-6-4 00:25 , Processed in 0.073581 second(s), 23 queries .

Powered by Discuz! X3.2

© 2001-2013 Comsenz Inc.

快速回复 返回顶部 返回列表