西西论坛

 找回密码
 立即注册
搜索

生态箱/园区 Vivarium.2019.1080p.BluRay.x264-ROVERS 11.81GB

[复制链接]
电影首发 发表于 2020-5-15 18:11:51 | 显示全部楼层 |阅读模式
帖子完整标题:生态箱/园区 Vivarium.2019.1080p.BluRay.x264-ROVERS 11.81GB




◎译  名 生态箱 / 园区
◎片  名 Vivarium
◎年  代 2019
◎产  地 爱尔兰 / 丹麦 / 比利时
◎类  别 科幻 / 悬疑
◎语  言 英语
◎上映日期 2019-05-18(戛纳电影节)
◎IMDb评分  5.8/10 from 16314 users
◎片  长 97分钟
◎导  演 罗根·费纳根 Lorcan Finnegan
◎编  剧 罗根·费纳根 Lorcan Finnegan / Garret Shanley
◎主  演 杰西·艾森伯格 Jesse Eisenberg
       伊莫琴·普茨 Imogen Poots
       乔纳森·阿里斯 Jonathan Aris
       奥尔加·韦尔利 Olga Wehrly
       Eanna Hardwicke
       Shana Hart
       Senan Jennings
       Molly McCann
       Danielle Ryan
       Jack Hudson
       Mark Quigley


◎标  签 悬疑 | 科幻 | 惊悚 | 美国 | 科幻/魔幻 | 2019 | 杰西·艾森伯格 | JesseEisenberg

◎简  介  

  波茨和艾森伯格饰一对情侣,吃下一个房地产经理安利,住进了某神秘的新住房项目,从此他们被困在迷宫一般、外表全一样的房子里,被迫抚养一个非现实世界的小孩。

◎获奖情况  

  第72届戛纳电影节(2019)
  影评人周单元  影评人周单元大奖 (提名) 罗根·费纳根
  影评人周单元  发行奖
Video
ID                                       : 1
Format                                   : AVC
Format/Info                              : Advanced Video Codec
Format settings                          : CABAC / 5 Ref Frames
Format settings, CABAC                   : Yes
Format settings, Reference frames        : 5 frames
Codec ID                                 : V_MPEG4/ISO/AVC
Duration                                 : 1 h 38 min
Bit rate                                 : 13.6 Mb/s
Width                                    : 1 920 pixels
Height                                   : 802 pixels
Display aspect ratio                     : 2.40:1
Frame rate mode                          : Constant
Frame rate                               : 23.976 (24000/1001/189150) FPS
Color space                              : YUV
Chroma subsampling                       : 4:2:0
Bit depth                                : 8 bits
Scan type                                : Progressive
Bits/(Pixel*Frame)                       : 0.370
Stream size                              : 9.40 GiB (80%)
Writing library                          : x264 core 160 r3000 33f9e14
Encoding settings                        : cabac=1 / ref=5 / deblock=1:-3:-3 / analyse=0x3:0x133 / me=umh / subme=9 / psy=1 / psy_rd=1.00:0.00 / mixed_ref=1 / me_range=16 / chroma_me=1 / trellis=2 / 8x8dct=1 / cqm=0 / deadzone=21,11 / fast_pskip=1 / chroma_qp_offset=-2 / threads=25 / lookahead_threads=2 / sliced_threads=0 / nr=0 / decimate=1 / interlaced=0 / bluray_compat=0 / constrained_intra=0 / bframes=3 / b_pyramid=2 / b_adapt=2 / b_bias=0 / direct=3 / weightb=1 / open_gop=0 / weightp=2 / keyint=250 / keyint_min=23 / scenecut=40 / intra_refresh=0 / rc_lookahead=60 / rc=crf / mbtree=1 / crf=16.0 / qcomp=0.60 / qpmin=0 / qpmax=69 / qpstep=4 / ip_ratio=1.40 / aq=1:1.00
Language                                 : English
Default                                  : Yes
Forced                                   : No

Audio #1
ID                                       : 2
Format                                   : DTS XLL
Format/Info                              : Digital Theater Systems
Commercial name                          : DTS-HD Master Audio
Codec ID                                 : A_DTS
Duration                                 : 1 h 38 min
Bit rate mode                            : Variable
Bit rate                                 : 3 374 kb/s
Channel(s)                               : 6 channels
Channel layout                           : C L R Ls Rs LFE
Sampling rate                            : 48.0 kHz
Frame rate                               : 93.750 FPS (512 SPF)
Bit depth                                : 24 bits
Compression mode                         : Lossless
Stream size                              : 2.32 GiB (20%)
Language                                 : English
Default                                  : Yes
Forced                                   : No

Audio #2
ID                                       : 3
Format                                   : AAC LC
Format/Info                              : Advanced Audio Codec Low Complexity
Codec ID                                 : A_AAC-2
Duration                                 : 1 h 38 min
Bit rate                                 : 107 kb/s
Channel(s)                               : 2 channels
Channel layout                           : L R
Sampling rate                            : 48.0 kHz
Frame rate                               : 46.875 FPS (1024 SPF)
Compression mode                         : Lossy
Delay relative to video                  : 9 ms
Stream size                              : 75.5 MiB (1%)
Title                                    : Commentary
Language                                 : English
Default                                  : No
Forced                                   : No

Text #1
ID                                       : 4
Format                                   : PGS
Muxing mode                              : zlib
Codec ID                                 : S_HDMV/PGS
Codec ID/Info                            : Picture based subtitle format used on BDs/HD-DVDs
Duration                                 : 1 h 35 min
Bit rate                                 : 19.2 kb/s
Count of elements                        : 1670
Stream size                              : 13.1 MiB (0%)
Title                                    : English SDH
Language                                 : English
Default                                  : No
Forced                                   : No

Text #2
ID                                       : 5
Format                                   : PGS
Muxing mode                              : zlib
Codec ID                                 : S_HDMV/PGS
Codec ID/Info                            : Picture based subtitle format used on BDs/HD-DVDs
Duration                                 : 1 h 35 min
Bit rate                                 : 12.0 kb/s
Count of elements                        : 1194
Stream size                              : 8.26 MiB (0%)
Title                                    : Spanish
Language                                 : Spanish
Default                                  : No
Forced                                   : No

Menu
00:00:00.000                             : en:Chapter 01
00:05:52.185                             : en:Chapter 02
00:12:26.871                             : en:Chapter 03
00:17:47.525                             : en:Chapter 04
00:22:23.217                             : en:Chapter 05
00:27:06.250                             : en:Chapter 06
00:35:45.977                             : en:Chapter 07
00:41:56.055                             : en:Chapter 08
00:46:25.199                             : en:Chapter 09
00:51:30.796                             : en:Chapter 10
00:54:06.034                             : en:Chapter 11
01:03:43.069                             : en:Chapter 12
01:12:21.587                             : en:Chapter 13
01:19:14.333                             : en:Chapter 14
01:25:33.295                             : en:Chapter 15
01:29:44.629                             : en:Chapter 16



                                                                                                                                                                                                        
                                                                                                                                                                                                                                                                                                                                                                                                                                                                                                                                                                                                                                                                                                                                                                                                                                                       c4db4d16d72b3e1891b56ba138d71668.torrent (59.76 KB, 下载次数: 0)

回复

使用道具 举报

小黑屋|西西论坛

本网站所有资源来自网络,如无意中侵犯了您的权益,请发邮件至 [email protected],立即清除相关链接

GMT+8, 2020-6-3 13:37 , Processed in 0.058856 second(s), 23 queries .

Powered by Discuz! X3.2

© 2001-2013 Comsenz Inc.

快速回复 返回顶部 返回列表