西西论坛

 找回密码
 立即注册
搜索

诛仙 Ⅰ Jade.Dynasty.2019.CHINESE.1080p.BluRay.x264.DTS-FGT 9.18GB

[复制链接]
电影首发 发表于 2020-5-15 18:11:51 | 显示全部楼层 |阅读模式
帖子完整标题:诛仙 Ⅰ Jade.Dynasty.2019.CHINESE.1080p.BluRay.x264.DTS-FGT 9.18GB




◎译  名 诛仙1 / Jade Dynasty / 诛仙 / 诛仙电影版
◎片  名 诛仙 Ⅰ
◎年  代 2019
◎产  地 中国大陆
◎类  别 爱情 / 奇幻 / 古装
◎语  言 汉语普通话
◎上映日期 2019-09-13(中国大陆)
◎IMDb评分  5.9/10 from 528 users
◎片  长 101分钟
◎导  演 程小东 Siu-Tung Ching
◎编  剧 申捷 Jie Shen / 宋朝云
◎主  演 肖战 Sean Xiao
       李沁 Qin Li
       孟美岐 Meiqi Meng
       唐艺昕 Yixin Tang
       刘端端 Duanduan Liu
       李燊 Li Shen
       代旭 Xu Dai
       邱心志 Hsin-chih Chiu
       姜大卫 David Chiang
       陈孝萱 Vicky Chen
       徐少强 Norman Chu
       叶童 Cecilia Yip
       梁家仁 Ka-Yan Leung
       包小松 Anthony Bao
       陈立唯 Liwei Chen
       熊欣欣 Xinxin Xiong
       李熙 lixi
       谢辰
       何政庭
       张智坤
       孟子荻 Zidi Meng
       马佳玛尧 Jiamayao Ma
       张本煜 Benyu Zhang
       李昕岳 Xinyue Li
       翟玉博


◎标  签 仙侠 | 古装 | 小说改编 | 玄幻 | 武侠 | 良心 | 2019 | 中国大陆

◎简  介  

  草庙村被屠,少年张小凡双亲离世,被青云门大竹峰收留。机缘巧合之下,他习得佛门天音功法,又意外获得魔教法器烧火棍,踏上强者之路的同时,也让他陷入了巨大的危机。至魔法器的现世,与陆雪琪、碧瑶、田灵儿三个女生间命运的交错,都让他原本单纯的人生轨迹充满变数。一个勇者驳斥命运的传奇之旅就此展开......
Video
ID                                       : 1
Format                                   : AVC
Format/Info                              : Advanced Video Codec
Format settings                          : CABAC / 4 Ref Frames
Format settings, CABAC                   : Yes
Format settings, Reference frames        : 4 frames
Codec ID                                 : V_MPEG4/ISO/AVC
Duration                                 : 1 h 41 min
Bit rate                                 : 11.5 Mb/s
Width                                    : 1 920 pixels
Height                                   : 804 pixels
Display aspect ratio                     : 2.40:1
Frame rate mode                          : Constant
Frame rate                               : 24.000 FPS
Color space                              : YUV
Chroma subsampling                       : 4:2:0
Bit depth                                : 8 bits
Scan type                                : Progressive
Bits/(Pixel*Frame)                       : 0.310
Stream size                              : 8.11 GiB (88%)
Title                                    : Jade.Dynasty.2019.CHINESE.1080p.BluRay.x264.DTS-FGT
Writing library                          : x264 core 148 r2748 97eaef2
Encoding settings                        : cabac=1 / ref=4 / deblock=1:-2:-2 / analyse=0x3:0x113 / me=umh / subme=9 / psy=1 / psy_rd=1.00:0.15 / mixed_ref=1 / me_range=16 / chroma_me=1 / trellis=2 / 8x8dct=1 / cqm=0 / deadzone=21,11 / fast_pskip=1 / chroma_qp_offset=-3 / threads=72 / lookahead_threads=3 / sliced_threads=0 / nr=0 / decimate=1 / interlaced=0 / bluray_compat=0 / constrained_intra=0 / bframes=3 / b_pyramid=2 / b_adapt=1 / b_bias=0 / direct=3 / weightb=1 / open_gop=0 / weightp=2 / keyint=250 / keyint_min=25 / scenecut=40 / intra_refresh=0 / rc_lookahead=50 / rc=2pass / mbtree=1 / bitrate=11500 / ratetol=1.0 / qcomp=0.60 / qpmin=0 / qpmax=69 / qpstep=4 / cplxblur=20.0 / qblur=0.5 / vbv_maxrate=31250 / vbv_bufsize=31250 / nal_hrd=none / filler=0 / ip_ratio=1.40 / aq=1:1.00
Language                                 : Chinese
Default                                  : Yes
Forced                                   : No

Audio
ID                                       : 2
Format                                   : DTS
Format/Info                              : Digital Theater Systems
Codec ID                                 : A_DTS
Duration                                 : 1 h 41 min
Bit rate mode                            : Constant
Bit rate                                 : 1 509 kb/s
Channel(s)                               : 6 channels
Channel layout                           : C L R Ls Rs LFE
Sampling rate                            : 48.0 kHz
Frame rate                               : 93.750 FPS (512 SPF)
Bit depth                                : 16 bits
Compression mode                         : Lossy
Stream size                              : 1.06 GiB (12%)
Title                                    : Jade.Dynasty.2019.CHINESE.1080p.BluRay.x264.DTS-FGT
Language                                 : Chinese
Default                                  : Yes
Forced                                   : No

Text
ID                                       : 3
Format                                   : UTF-8
Codec ID                                 : S_TEXT/UTF8
Codec ID/Info                            : UTF-8 Plain Text
Duration                                 : 1 h 35 min
Bit rate                                 : 44 b/s
Count of elements                        : 1295
Stream size                              : 31.6 KiB (0%)
Language                                 : English
Default                                  : Yes
Forced                                   : No

Menu
00:00:00.000                             : en:Chapter 01
00:08:21.958                             : en:Chapter 02
00:16:23.333                             : en:Chapter 03
00:25:02.833                             : en:Chapter 04
00:33:56.875                             : en:Chapter 05
00:42:03.125                             : en:Chapter 06
00:51:03.875                             : en:Chapter 07
00:57:57.166                             : en:Chapter 08
01:06:54.500                             : en:Chapter 09
01:15:23.208                             : en:Chapter 10
01:23:56.875                             : en:Chapter 11
01:32:16.583                             : en:Chapter 12



                                                                                                                                                                                                        
                                                                                                                                                                                                                                                                                                                                                                                                                                                                                                                                                                                                                                                                                                                                                                                                                                                       f65607b1b4d0a264d773266d588bbdae.torrent (46.42 KB, 下载次数: 0)

回复

使用道具 举报

小黑屋|西西论坛

本网站所有资源来自网络,如无意中侵犯了您的权益,请发邮件至 [email protected],立即清除相关链接

GMT+8, 2020-6-3 12:09 , Processed in 0.061920 second(s), 23 queries .

Powered by Discuz! X3.2

© 2001-2013 Comsenz Inc.

快速回复 返回顶部 返回列表