西西论坛

 找回密码
 立即注册
搜索

同感公司 Empathy.Inc.2018.1080p.BluRay.x264-SPOOKS 5.77GB

[复制链接]
电影首发 发表于 2020-5-15 18:11:51 | 显示全部楼层 |阅读模式
帖子完整标题:同感公司 Empathy.Inc.2018.1080p.BluRay.x264-SPOOKS 5.77GB




◎译  名 同感公司
◎片  名 Empathy, Inc.
◎年  代 2018
◎产  地 美国
◎类  别 剧情 / 科幻 / 惊悚
◎语  言 英语
◎上映日期 2018-06-24(美国)
◎IMDb评分  5.0/10 from 273 users
◎导  演 Yedidya Gorsetman
◎编  剧 Mark Leidner
◎主  演 扎克·罗比达斯 Zack Robidas
       凯西·塞雷尔 Kathy Searle
       杰·克拉茨 Jay Klaitz


◎简  介  

  在这部令人不寒而栗的科技惊悚片中,一位神秘的虚拟现实初创公司的投资者发现,这项服务为客户提供的肮脏体验并不像他被告知的那样虚拟。
Video
ID                                       : 1
Format                                   : AVC
Format/Info                              : Advanced Video Codec
Format settings                          : CABAC / 5 Ref Frames
Format settings, CABAC                   : Yes
Format settings, Reference frames        : 5 frames
Codec ID                                 : V_MPEG4/ISO/AVC
Duration                                 : 1 h 37 min
Bit rate                                 : 7 215 kb/s
Width                                    : 1 920 pixels
Height                                   : 744 pixels
Display aspect ratio                     : 2.581
Frame rate mode                          : Constant
Frame rate                               : 23.976 (24000/1001/189150) FPS
Color space                              : YUV
Chroma subsampling                       : 4:2:0
Bit depth                                : 8 bits
Scan type                                : Progressive
Bits/(Pixel*Frame)                       : 0.211
Stream size                              : 4.90 GiB (85%)
Writing library                          : x264 core 160 r3000 33f9e14
Encoding settings                        : cabac=1 / ref=5 / deblock=1:-3:-3 / analyse=0x3:0x133 / me=umh / subme=10 / psy=1 / psy_rd=1.20:0.00 / mixed_ref=1 / me_range=24 / chroma_me=1 / trellis=2 / 8x8dct=1 / cqm=0 / deadzone=21,11 / fast_pskip=0 / chroma_qp_offset=-2 / threads=23 / lookahead_threads=3 / sliced_threads=0 / nr=0 / decimate=0 / interlaced=0 / bluray_compat=0 / constrained_intra=0 / bframes=8 / b_pyramid=2 / b_adapt=2 / b_bias=0 / direct=3 / weightb=1 / open_gop=0 / weightp=2 / keyint=250 / keyint_min=23 / scenecut=40 / intra_refresh=0 / rc=crf / mbtree=0 / crf=16.0 / qcomp=0.60 / qpmin=0 / qpmax=69 / qpstep=4 / ip_ratio=1.40 / pb_ratio=1.30 / aq=3:0.90
Default                                  : Yes
Forced                                   : No
Color range                              : Limited
Matrix coefficients                      : BT.709

Audio #1
ID                                       : 2
Format                                   : FLAC
Format/Info                              : Free Lossless Audio Codec
Codec ID                                 : A_FLAC
Duration                                 : 1 h 37 min
Bit rate mode                            : Variable
Bit rate                                 : 1 163 kb/s
Channel(s)                               : 2 channels
Channel layout                           : L R
Sampling rate                            : 48.0 kHz
Frame rate                               : 11.719 FPS (4096 SPF)
Bit depth                                : 24 bits
Compression mode                         : Lossless
Stream size                              : 809 MiB (14%)
Writing library                          : libFLAC 1.3.2 (UTC 2017-01-01)
Language                                 : English
Default                                  : Yes
Forced                                   : No

Audio #2
ID                                       : 3
Format                                   : AAC LC
Format/Info                              : Advanced Audio Codec Low Complexity
Codec ID                                 : A_AAC-2
Duration                                 : 1 h 37 min
Bit rate                                 : 104 kb/s
Channel(s)                               : 2 channels
Channel layout                           : L R
Sampling rate                            : 48.0 kHz
Frame rate                               : 46.875 FPS (1024 SPF)
Compression mode                         : Lossy
Delay relative to video                  : 20 ms
Stream size                              : 72.7 MiB (1%)
Title                                    : Commentary
Language                                 : English
Default                                  : No
Forced                                   : No

Text
ID                                       : 4
Format                                   : PGS
Muxing mode                              : zlib
Codec ID                                 : S_HDMV/PGS
Codec ID/Info                            : Picture based subtitle format used on BDs/HD-DVDs
Duration                                 : 1 h 36 min
Bit rate                                 : 31.5 kb/s
Count of elements                        : 2410
Stream size                              : 21.8 MiB (0%)
Language                                 : English
Default                                  : No
Forced                                   : No

Menu
00:00:00.000                             : en:Chapter 01
00:09:14.387                             : en:Chapter 02
00:16:57.975                             : en:Chapter 03
00:25:15.222                             : en:Chapter 04
00:33:27.130                             : en:Chapter 05
00:40:58.956                             : en:Chapter 06
00:47:40.316                             : en:Chapter 07
00:55:35.582                             : en:Chapter 08
01:01:41.615                             : en:Chapter 09
01:12:18.584                             : en:Chapter 10
01:19:44.571                             : en:Chapter 11
01:30:32.802                             : en:Chapter 12



                                                                                                                                                                                                        
                                                                                                                                                                                                                                                                                                                                                                                                                                                                                                                                                                                                                                                                                                                                                                                                                                                       f303eea5a589ec748532f1681c8ec6a4.torrent (29.58 KB, 下载次数: 0)

回复

使用道具 举报

小黑屋|西西论坛

本网站所有资源来自网络,如无意中侵犯了您的权益,请发邮件至 [email protected],立即清除相关链接

GMT+8, 2020-8-11 18:45 , Processed in 0.117173 second(s), 23 queries .

Powered by Discuz! X3.2

© 2001-2013 Comsenz Inc.

快速回复 返回顶部 返回列表