西西论坛

 找回密码
 立即注册
搜索

巴克劳/夜鹰 Bacurau.2019.1080p.BluRay.x264-CADAVER 17.89GB

[复制链接]
电影首发 发表于 2020-5-15 18:11:51 | 显示全部楼层 |阅读模式
帖子完整标题:巴克劳/夜鹰 Bacurau.2019.1080p.BluRay.x264-CADAVER 17.89GB




◎译  名 巴克劳 / 夜鹰 / 杀戮荒村(台)
◎片  名 Bacurau
◎年  代 2019
◎产  地 巴西 / 法国
◎类  别 剧情 / 惊悚
◎语  言 葡萄牙语 / 英语
◎上映日期 2019-05-15(戛纳电影节) / 2019-08-29(巴西)
◎片  长 131分钟
◎导  演 儒利亚诺·多赫内利斯 Juliano Dornelles / 小克莱伯·门多萨 Kleber Mendon?a Filho
◎编  剧 小克莱伯·门多萨 Kleber Mendon?a Filho / 儒利亚诺·多赫内利斯 Juliano Dornelles
◎主  演 芭芭拉·科伦 Bárbara Colen
       托马斯·阿基诺 Thomas Aquino
       西弗罗·佩雷拉 Silvero Pereira
       塔尔德尔·利马 Thardelly Lima
       鲁本斯·桑托斯 Rubens Santos
       威尔逊·拉贝洛 Wilson Rabelo
       卡洛斯·弗朗西斯科 Carlos Francisco
       露西安娜·索扎 Luciana Souza
       卡林·特莱斯 Karine Teles
       安东尼奥·萨瓦 Antonio Saboia
       索尼娅·布拉加 Sonia Braga
       乌多·基尔 Udo Kier
       布达·里拉 Buda Lira
       克莱比亚·索萨 Clebia Sousa
       丹尼·巴博萨 Danny Barbosa
       乔尼·马尔斯 Jonny Mars
       克里斯·杜贝克 Chris Doubek


◎标  签 巴西 | 2019 | 剧情 | 戛纳电影节 | 惊悚 | 政治 | 暴力 | 电影

◎简  介  

  在不远的未来,Bacurau 村的女族长卡梅蒂塔逝世,享年94岁,全村都沉浸在悲痛之中。几天后村民们发现村庄从地图上消失了。

◎获奖情况  

  第72届戛纳电影节(2019)
  主竞赛单元 金棕榈奖(提名) 儒利亚诺·多赫内利斯 / 小克莱伯·门多萨
  主竞赛单元 评审团奖 儒利亚诺·多赫内利斯 / 小克莱伯·门多萨
  同志金棕榈奖(提名) 儒利亚诺·多赫内利斯 / 小克莱伯·门多萨
Video
ID                                       : 1
Format                                   : AVC
Format/Info                              : Advanced Video Codec
Format settings                          : CABAC / 5 Ref Frames
Format settings, CABAC                   : Yes
Format settings, Reference frames        : 5 frames
Codec ID                                 : V_MPEG4/ISO/AVC
Duration                                 : 2 h 11 min
Bit rate                                 : 16.0 Mb/s
Width                                    : 1 920 pixels
Height                                   : 800 pixels
Display aspect ratio                     : 2.40:1
Frame rate mode                          : Constant
Frame rate                               : 24.000 FPS
Color space                              : YUV
Chroma subsampling                       : 4:2:0
Bit depth                                : 8 bits
Scan type                                : Progressive
Bits/(Pixel*Frame)                       : 0.433
Stream size                              : 14.6 GiB (82%)
Writing library                          : x264 core 160 r3000 33f9e14
Encoding settings                        : cabac=1 / ref=5 / deblock=1:-3:-3 / analyse=0x3:0x133 / me=umh / subme=10 / psy=1 / psy_rd=1.20:0.00 / mixed_ref=1 / me_range=24 / chroma_me=1 / trellis=2 / 8x8dct=1 / cqm=0 / deadzone=21,11 / fast_pskip=0 / chroma_qp_offset=-2 / threads=24 / lookahead_threads=4 / sliced_threads=0 / nr=0 / decimate=0 / interlaced=0 / bluray_compat=0 / constrained_intra=0 / bframes=8 / b_pyramid=2 / b_adapt=2 / b_bias=0 / direct=3 / weightb=1 / open_gop=0 / weightp=2 / keyint=250 / keyint_min=24 / scenecut=40 / intra_refresh=0 / rc=crf / mbtree=0 / crf=16.0 / qcomp=0.60 / qpmin=0 / qpmax=69 / qpstep=4 / ip_ratio=1.40 / pb_ratio=1.30 / aq=3:0.90
Default                                  : Yes
Forced                                   : No
Color range                              : Limited
Matrix coefficients                      : BT.709

Audio
ID                                       : 2
Format                                   : DTS XLL
Format/Info                              : Digital Theater Systems
Commercial name                          : DTS-HD Master Audio
Codec ID                                 : A_DTS
Duration                                 : 2 h 11 min
Bit rate mode                            : Variable
Bit rate                                 : 3 555 kb/s
Channel(s)                               : 6 channels
Channel layout                           : C L R Ls Rs LFE
Sampling rate                            : 48.0 kHz
Frame rate                               : 93.750 FPS (512 SPF)
Bit depth                                : 24 bits
Compression mode                         : Lossless
Stream size                              : 3.26 GiB (18%)
Language                                 : Portuguese
Default                                  : Yes
Forced                                   : No

Text #1
ID                                       : 3
Format                                   : UTF-8
Codec ID                                 : S_TEXT/UTF8
Codec ID/Info                            : UTF-8 Plain Text
Duration                                 : 1 h 59 min
Bit rate                                 : 22 b/s
Count of elements                        : 784
Stream size                              : 20.0 KiB (0%)
Title                                    : English (Forced)
Language                                 : English
Default                                  : Yes
Forced                                   : Yes

Text #2
ID                                       : 4
Format                                   : PGS
Muxing mode                              : zlib
Codec ID                                 : S_HDMV/PGS
Codec ID/Info                            : Picture based subtitle format used on BDs/HD-DVDs
Duration                                 : 2 h 6 min
Bit rate                                 : 19.6 kb/s
Count of elements                        : 2491
Stream size                              : 17.7 MiB (0%)
Language                                 : English
Default                                  : No
Forced                                   : No

Text #3
ID                                       : 5
Format                                   : PGS
Muxing mode                              : zlib
Codec ID                                 : S_HDMV/PGS
Codec ID/Info                            : Picture based subtitle format used on BDs/HD-DVDs
Duration                                 : 1 h 59 min
Bit rate                                 : 11.5 kb/s
Count of elements                        : 1568
Stream size                              : 9.83 MiB (0%)
Language                                 : English
Default                                  : No
Forced                                   : No

Menu
00:00:00.000                             : en:Chapter 01
00:10:56.167                             : en:Chapter 02
00:21:50.625                             : en:Chapter 03
00:33:28.458                             : en:Chapter 04
00:44:27.375                             : en:Chapter 05
00:57:45.208                             : en:Chapter 06
01:08:52.000                             : en:Chapter 07
01:19:55.125                             : en:Chapter 08
01:32:48.125                             : en:Chapter 09
01:44:11.417                             : en:Chapter 10
01:55:33.333                             : en:Chapter 11
02:05:39.375                             : en:Chapter 12



                                                                                                                                                                                                        
                                                                                                                                                                                                                                                                                                                                                                                                                                                                                                                                                                                                                                                                                                                                                                                                                                                       a389eb6a1a4ef7b4ba4c2c5c9431cae7.torrent (90.08 KB, 下载次数: 0)

回复

使用道具 举报

小黑屋|西西论坛

本网站所有资源来自网络,如无意中侵犯了您的权益,请发邮件至 [email protected],立即清除相关链接

GMT+8, 2020-6-3 11:11 , Processed in 0.059524 second(s), 23 queries .

Powered by Discuz! X3.2

© 2001-2013 Comsenz Inc.

快速回复 返回顶部 返回列表