西西论坛

 找回密码
 立即注册
搜索

法外之徒/私法捍衛 Beyond.The.Law.2019.1080p.BluRay.x264-LATENCY 9.26GB

[复制链接]
电影首发 发表于 2020-5-15 18:11:51 | 显示全部楼层 |阅读模式
帖子完整标题:法外之徒/私法捍衛 Beyond.The.Law.2019.1080p.BluRay.x264-LATENCY 9.26GB




◎译  名 法外之徒 / 私法捍衛(台)
◎片  名 Beyond the Law
◎年  代 2019
◎产  地 美国
◎类  别 动作 / 犯罪
◎语  言 英语
◎上映日期 2019-12-06(美国)
◎片  长 89分钟
◎导  演 James Cullen Bressack
◎编  剧 查德·洛 Chad Law / Johnny Martin Walters
◎主  演 史蒂文·席格 Steven Seagal
       约翰尼·梅辛纳 Johnny Messner
       DMX


◎标  签 美国 | 复仇 | 动作 | 犯罪 | 烂透了 | 烂片 | 2019 | 大烂片

◎简  介  

  法蘭克威爾森是位擁有不堪過去的前警察。有天他接獲默斯警探的通知,得知自己唯一的兒子被人殺害。原本在鄉下過著退隱生活的他,動身回到城市,打算將兇手繩之以法。可是,前幫派分子奧古斯汀諾卻想從中阻撓。如今已是生意人的他不喜歡法蘭克到處打探的行為,並且願意不惜一切保護自己的兒子。一場對決就此展開,雙方人馬絕不善罷甘休,直到其中一人倒下為止。
Video
ID                                       : 1
Format                                   : AVC
Format/Info                              : Advanced Video Codec
Format settings                          : CABAC / 5 Ref Frames
Format settings, CABAC                   : Yes
Format settings, Reference frames        : 5 frames
Codec ID                                 : V_MPEG4/ISO/AVC
Duration                                 : 1 h 29 min
Bit rate                                 : 11.4 Mb/s
Width                                    : 1 920 pixels
Height                                   : 804 pixels
Display aspect ratio                     : 2.40:1
Frame rate mode                          : Constant
Frame rate                               : 23.976 (24000/1001/189150) FPS
Color space                              : YUV
Chroma subsampling                       : 4:2:0
Bit depth                                : 8 bits
Scan type                                : Progressive
Bits/(Pixel*Frame)                       : 0.307
Stream size                              : 7.12 GiB (77%)
Writing library                          : x264 core 160 r3000 33f9e14
Encoding settings                        : cabac=1 / ref=5 / deblock=1:-3:-3 / analyse=0x3:0x133 / me=umh / subme=9 / psy=1 / psy_rd=1.00:0.00 / mixed_ref=1 / me_range=32 / chroma_me=1 / trellis=2 / 8x8dct=1 / cqm=0 / deadzone=21,11 / fast_pskip=0 / chroma_qp_offset=-2 / threads=24 / lookahead_threads=4 / sliced_threads=0 / nr=0 / decimate=0 / interlaced=0 / bluray_compat=0 / constrained_intra=0 / bframes=9 / b_pyramid=2 / b_adapt=2 / b_bias=0 / direct=3 / weightb=1 / open_gop=0 / weightp=2 / keyint=250 / keyint_min=23 / scenecut=40 / intra_refresh=0 / rc=crf / mbtree=0 / crf=16.0 / qcomp=0.60 / qpmin=0 / qpmax=69 / qpstep=4 / ip_ratio=1.40 / pb_ratio=1.30 / aq=3:0.88
Default                                  : Yes
Forced                                   : No
Color range                              : Limited
Color primaries                          : BT.709
Transfer characteristics                 : BT.709
Matrix coefficients                      : BT.709

Audio
ID                                       : 2
Format                                   : DTS XLL
Format/Info                              : Digital Theater Systems
Commercial name                          : DTS-HD Master Audio
Codec ID                                 : A_DTS
Duration                                 : 1 h 29 min
Bit rate mode                            : Variable
Bit rate                                 : 3 392 kb/s
Channel(s)                               : 6 channels
Channel layout                           : C L R Ls Rs LFE
Sampling rate                            : 48.0 kHz
Frame rate                               : 93.750 FPS (512 SPF)
Bit depth                                : 24 bits
Compression mode                         : Lossless
Stream size                              : 2.12 GiB (23%)
Title                                    : English
Language                                 : English
Default                                  : No
Forced                                   : No

Text
ID                                       : 3
Format                                   : PGS
Muxing mode                              : zlib
Codec ID                                 : S_HDMV/PGS
Codec ID/Info                            : Picture based subtitle format used on BDs/HD-DVDs
Duration                                 : 1 h 27 min
Bit rate                                 : 22.3 kb/s
Count of elements                        : 2615
Stream size                              : 14.0 MiB (0%)
Title                                    : English
Language                                 : English
Default                                  : No
Forced                                   : No

Menu
00:00:00.000                             : en:Chapter 01
00:10:39.472                             : en:Chapter 02
00:19:47.978                             : en:Chapter 03
00:29:57.796                             : en:Chapter 04
00:40:27.634                             : en:Chapter 05
00:51:12.236                             : en:Chapter 06
01:00:35.674                             : en:Chapter 07
01:23:43.602                             : en:Chapter 08



                                                                                                                                                                                                        
                                                                                                                                                                                                                                                                                                                                                                                                                                                                                                                                                                                                                                                                                                                                                                                                                                                       e4ac12d28fa380d904a2d20ec61d9603.torrent (47 KB, 下载次数: 0)

回复

使用道具 举报

小黑屋|西西论坛

本网站所有资源来自网络,如无意中侵犯了您的权益,请发邮件至 [email protected],立即清除相关链接

GMT+8, 2020-6-3 12:44 , Processed in 0.060675 second(s), 23 queries .

Powered by Discuz! X3.2

© 2001-2013 Comsenz Inc.

快速回复 返回顶部 返回列表