西西论坛

 找回密码
 立即注册
搜索

每况愈下 Downhill.2020.720p.BluRay.x264-GECKOS 5.78GB

[复制链接]
电影首发 发表于 2020-5-15 18:01:33 | 显示全部楼层 |阅读模式
帖子完整标题:每况愈下 Downhill.2020.720p.BluRay.x264-GECKOS 5.78GB




◎译  名 每况愈下 / Force Majeure / 不可抗力 / 婚姻大崩坏(台) / 美版游客
◎片  名 Downhill
◎年  代 2020
◎产  地 美国
◎类  别 剧情 / 家庭
◎语  言 英语
◎上映日期 2020-01-26(圣丹斯电影节) / 2020-02-14(美国)
◎IMDb评分  4.8/10 from 3482 users
◎片  长 86分钟
◎导  演 奈特·法松 Nat Faxon / 吉姆·拉什 Jim Rash
◎编  剧 杰西·阿姆斯特朗 Jesse Armstrong / 奈特·法松 Nat Faxon / 吉姆·拉什 Jim Rash / 鲁本·奥斯特伦德 Ruben ?stlund
◎主  演 茱莉亚·路易斯-德瑞弗斯 Julia Louis-Dreyfus
       威尔·法瑞尔 Will Ferrell
       米兰达·奥图 Miranda Otto
       佐伊·晁 Zo? Chao
       扎克·伍兹 Zach Woods
       朱利安·格雷 Julian Grey
       克里斯托弗·海维尤 Kristofer Hivju
       阿蒙·雅各布·福特 Ammon Jacob Ford
       吉欧里奥·贝鲁蒂 Giulio Berruti
       埃莱娜·卡多纳 Hélène Cardona


◎标  签 美国 | 家庭 | 剧情 | 2020 | 翻拍 | 喜剧 | 改编 | 女性

◎简  介  

  故事讲述在阿尔卑斯山滑雪佳地,一个家庭在就餐时遇到了雪崩,丈夫只顾自己逃命不救妻儿,引发了家庭危机。
Video
ID                                       : 1
Format                                   : AVC
Format/Info                              : Advanced Video Codec
Format settings                          : CABAC / 8 Ref Frames
Format settings, CABAC                   : Yes
Format settings, Reference frames        : 8 frames
Codec ID                                 : V_MPEG4/ISO/AVC
Duration                                 : 1 h 26 min
Bit rate                                 : 8 905 kb/s
Width                                    : 1 280 pixels
Height                                   : 536 pixels
Display aspect ratio                     : 2.40:1
Frame rate mode                          : Constant
Frame rate                               : 23.976 (24000/1001/189150) FPS
Color space                              : YUV
Chroma subsampling                       : 4:2:0
Bit depth                                : 8 bits
Scan type                                : Progressive
Bits/(Pixel*Frame)                       : 0.541
Stream size                              : 5.36 GiB (93%)
Writing library                          : x264 core 160 r3000 33f9e14
Encoding settings                        : cabac=1 / ref=8 / deblock=1:-3:-3 / analyse=0x3:0x133 / me=umh / subme=9 / psy=1 / psy_rd=1.20:0.00 / mixed_ref=1 / me_range=16 / chroma_me=1 / trellis=2 / 8x8dct=1 / cqm=0 / deadzone=21,11 / fast_pskip=0 / chroma_qp_offset=-2 / threads=17 / lookahead_threads=1 / sliced_threads=0 / nr=0 / decimate=0 / interlaced=0 / bluray_compat=0 / constrained_intra=0 / bframes=3 / b_pyramid=2 / b_adapt=2 / b_bias=0 / direct=3 / weightb=1 / open_gop=0 / weightp=2 / keyint=250 / keyint_min=23 / scenecut=40 / intra_refresh=0 / rc=crf / mbtree=0 / crf=14.0 / qcomp=0.60 / qpmin=0 / qpmax=69 / qpstep=4 / ip_ratio=1.40 / pb_ratio=1.30 / aq=3:0.90
Default                                  : Yes
Forced                                   : No
Color range                              : Limited
Matrix coefficients                      : BT.709

Audio
ID                                       : 2
Format                                   : AC-3
Format/Info                              : Audio Coding 3
Commercial name                          : Dolby Digital
Codec ID                                 : A_AC3
Duration                                 : 1 h 26 min
Bit rate mode                            : Constant
Bit rate                                 : 640 kb/s
Channel(s)                               : 6 channels
Channel layout                           : L R C LFE Ls Rs
Sampling rate                            : 48.0 kHz
Frame rate                               : 31.250 FPS (1536 SPF)
Bit depth                                : 16 bits
Compression mode                         : Lossy
Stream size                              : 395 MiB (7%)
Language                                 : English
Service kind                             : Complete Main
Default                                  : Yes
Forced                                   : No

Text #1
ID                                       : 3
Format                                   : PGS
Muxing mode                              : zlib
Codec ID                                 : S_HDMV/PGS
Codec ID/Info                            : Picture based subtitle format used on BDs/HD-DVDs
Duration                                 : 1 h 19 min
Bit rate                                 : 51.8 kb/s
Count of elements                        : 3256
Stream size                              : 29.4 MiB (0%)
Language                                 : English
Default                                  : No
Forced                                   : No

Text #2
ID                                       : 4
Format                                   : PGS
Muxing mode                              : zlib
Codec ID                                 : S_HDMV/PGS
Codec ID/Info                            : Picture based subtitle format used on BDs/HD-DVDs
Duration                                 : 1 h 24 min
Bit rate                                 : 36.4 kb/s
Count of elements                        : 2868
Stream size                              : 22.1 MiB (0%)
Language                                 : French
Default                                  : No
Forced                                   : No

Text #3
ID                                       : 5
Format                                   : PGS
Muxing mode                              : zlib
Codec ID                                 : S_HDMV/PGS
Codec ID/Info                            : Picture based subtitle format used on BDs/HD-DVDs
Duration                                 : 1 h 18 min
Bit rate                                 : 42.9 kb/s
Count of elements                        : 2876
Stream size                              : 24.1 MiB (0%)
Language                                 : Spanish
Default                                  : No
Forced                                   : No

Menu
00:00:00.000                             : en:Chapter 01
00:02:11.006                             : en:Chapter 02
00:05:26.868                             : en:Chapter 03
00:07:14.059                             : en:Chapter 04
00:10:10.026                             : en:Chapter 05
00:13:24.637                             : en:Chapter 06
00:16:49.967                             : en:Chapter 07
00:21:21.155                             : en:Chapter 08
00:25:27.693                             : en:Chapter 09
00:27:34.486                             : en:Chapter 10
00:30:53.935                             : en:Chapter 11
00:35:20.827                             : en:Chapter 12
00:40:37.018                             : en:Chapter 13
00:42:51.360                             : en:Chapter 14
00:44:56.444                             : en:Chapter 15
00:47:53.412                             : en:Chapter 16
00:51:54.028                             : en:Chapter 17
00:56:24.798                             : en:Chapter 18
00:58:52.571                             : en:Chapter 19
01:04:29.449                             : en:Chapter 20
01:09:54.774                             : en:Chapter 21
01:13:36.495                             : en:Chapter 22
01:16:30.336                             : en:Chapter 23
01:20:00.921                             : en:Chapter 24



                                                                                                                                                                                                        
                                                                                                                                                                                                                                                                                                                                                                                                                                                                                                                                                                                                                                                                                                                                                                                                                                                       5282ffbdd24170b924e8a941a62f0ee2.torrent (29.56 KB, 下载次数: 0)

回复

使用道具 举报

小黑屋|西西论坛

本网站所有资源来自网络,如无意中侵犯了您的权益,请发邮件至 [email protected],立即清除相关链接

GMT+8, 2020-5-29 12:27 , Processed in 0.086235 second(s), 23 queries .

Powered by Discuz! X3.2

© 2001-2013 Comsenz Inc.

快速回复 返回顶部 返回列表