西西论坛

 找回密码
 立即注册
搜索

明信片杀戮 The.Postcard.Killings.2020.720p.BluRay.x264-ROVERS 3.91GB

[复制链接]
电影首发 发表于 2020-5-15 18:01:33 | 显示全部楼层 |阅读模式
帖子完整标题:明信片杀戮 The.Postcard.Killings.2020.720p.BluRay.x264-ROVERS 3.91GB




◎译  名 明信片杀戮
◎片  名 The Postcard Killings
◎年  代 2020
◎产  地 英国 / 美国
◎类  别 悬疑 / 犯罪
◎语  言 英语 / 瑞典语 / 俄语 / 德语 / 法语
◎上映日期 2020-03-13(美国)
◎IMDb评分  5.7/10 from 1912 users
◎片  长 104分钟
◎导  演 丹尼斯·塔诺维奇 Danis Tanovic
◎编  剧 Ellen Furman / 丽莎·马克伦德 Liza Marklund / 詹姆斯·帕特森  James Patterson / 安德鲁·斯特恩 Andrew Stern
◎主  演 杰弗里·迪恩·摩根 Jeffrey Dean Morgan
       法米克·詹森 Famke Janssen
       娜奥米·巴特里克 Naomi Battrick
       卢瑞·奥康纳 Ruairi O'Connor
       库什·珍宝 Cush Jumbo
       约阿希姆·克罗尔 Joachim Król
       伊娃·罗斯 Eva R?se
       卢卡斯·洛克伦 Lukas Loughran
       斯蒂文·麦金托什 Steven Mackintosh
       Dylan Devonald Smith
       萨莉·哈姆森 Sallie Harmsen
       P?l Espen Kilstad
       Orla O'Rourke
       Christopher Pizzey
       蒂姆·埃亨 Tim Ahern
       丹尼斯·欧哈拉 Denis O'Hare
       Nathanjohn Carter
       Michael Dierks
       黛博拉·洛克 Deborah Rock


◎标  签 犯罪 | 悬疑 | 惊悚 | 英国 | 2020 | 杰弗里·迪恩·摩根 | 美国电影 | 英国电影

◎简  介  

  杰弗里·迪恩·摩根(《行尸走肉》)、法米克·詹森([x战警]、[飓风营救])将共同出演全新影片[明信片杀戮],该片由雅努什·卡明斯基执导,改编自詹姆斯·帕特森、丽莎·马克伦德的原著小说。故事讲述纽约侦探(摩根饰)的女儿和女婿在伦敦遭遇残忍杀害,而这让他的生活陷入混乱,就此他开始展开调查,而每到一个地方,他都将类似谋杀案以明信片形式寄给一名记者。片中法米克·詹森扮演其妻子。杰米·布莱克利也加盟该片。Good Films Collective制作发行影片,影片预计明年上映。
Video
ID                                       : 1
Format                                   : AVC
Format/Info                              : Advanced Video Codec
Format settings                          : CABAC / 8 Ref Frames
Format settings, CABAC                   : Yes
Format settings, Reference frames        : 8 frames
Codec ID                                 : V_MPEG4/ISO/AVC
Duration                                 : 1 h 44 min
Bit rate                                 : 4 717 kb/s
Width                                    : 1 280 pixels
Height                                   : 536 pixels
Display aspect ratio                     : 2.40:1
Frame rate mode                          : Constant
Frame rate                               : 23.976 (24000/1001/189150) FPS
Color space                              : YUV
Chroma subsampling                       : 4:2:0
Bit depth                                : 8 bits
Scan type                                : Progressive
Bits/(Pixel*Frame)                       : 0.287
Stream size                              : 3.43 GiB (88%)
Writing library                          : x264 core 160 r3000 33f9e14
Encoding settings                        : cabac=1 / ref=8 / deblock=1:-3:-3 / analyse=0x3:0x133 / me=umh / subme=9 / psy=1 / psy_rd=1.00:0.00 / mixed_ref=1 / me_range=16 / chroma_me=1 / trellis=2 / 8x8dct=1 / cqm=0 / deadzone=21,11 / fast_pskip=1 / chroma_qp_offset=-2 / threads=17 / lookahead_threads=1 / sliced_threads=0 / nr=0 / decimate=1 / interlaced=0 / bluray_compat=0 / constrained_intra=0 / bframes=3 / b_pyramid=2 / b_adapt=2 / b_bias=0 / direct=3 / weightb=1 / open_gop=0 / weightp=2 / keyint=250 / keyint_min=23 / scenecut=40 / intra_refresh=0 / rc_lookahead=60 / rc=crf / mbtree=1 / crf=17.0 / qcomp=0.60 / qpmin=0 / qpmax=69 / qpstep=4 / ip_ratio=1.40 / aq=1:1.00
Language                                 : English
Default                                  : Yes
Forced                                   : No

Audio
ID                                       : 2
Format                                   : AC-3
Format/Info                              : Audio Coding 3
Commercial name                          : Dolby Digital
Codec ID                                 : A_AC3
Duration                                 : 1 h 44 min
Bit rate mode                            : Constant
Bit rate                                 : 640 kb/s
Channel(s)                               : 6 channels
Channel layout                           : L R C LFE Ls Rs
Sampling rate                            : 48.0 kHz
Frame rate                               : 31.250 FPS (1536 SPF)
Bit depth                                : 16 bits
Compression mode                         : Lossy
Stream size                              : 477 MiB (12%)
Language                                 : English
Service kind                             : Complete Main
Default                                  : Yes
Forced                                   : No

Text #1
ID                                       : 3
Format                                   : PGS
Muxing mode                              : zlib
Codec ID                                 : S_HDMV/PGS
Codec ID/Info                            : Picture based subtitle format used on BDs/HD-DVDs
Duration                                 : 1 h 39 min
Bit rate                                 : 24.5 kb/s
Count of elements                        : 2600
Stream size                              : 17.5 MiB (0%)
Title                                    : English SDH
Language                                 : English
Default                                  : No
Forced                                   : No

Text #2
ID                                       : 4
Format                                   : PGS
Muxing mode                              : zlib
Codec ID                                 : S_HDMV/PGS
Codec ID/Info                            : Picture based subtitle format used on BDs/HD-DVDs
Duration                                 : 1 h 36 min
Bit rate                                 : 24.2 kb/s
Count of elements                        : 2638
Stream size                              : 16.7 MiB (0%)
Title                                    : Spanish
Language                                 : Spanish
Default                                  : No
Forced                                   : No

Menu
00:00:00.000                             : en:Chapter 01
00:10:55.196                             : en:Chapter 02
00:25:18.642                             : en:Chapter 03
00:36:15.673                             : en:Chapter 04
00:47:14.498                             : en:Chapter 05
00:58:21.998                             : en:Chapter 06
01:17:56.881                             : en:Chapter 07
01:37:36.267                             : en:Chapter 08



                                                                                                                                                                                                        
                                                                                                                                                                                                                                                                                                                                                                                                                                                                                                                                                                                                                                                                                                                                                                                                                                                       13e550646cf3b9fab0b7cabf9c3c781c.torrent (39.85 KB, 下载次数: 0)

回复

使用道具 举报

小黑屋|西西论坛

本网站所有资源来自网络,如无意中侵犯了您的权益,请发邮件至 [email protected],立即清除相关链接

GMT+8, 2020-5-29 12:32 , Processed in 0.075713 second(s), 23 queries .

Powered by Discuz! X3.2

© 2001-2013 Comsenz Inc.

快速回复 返回顶部 返回列表